Tags
Language
Tags

Stevie Nicks - The Other Side Of The Mirror (1989) {Japan 1st Press}

Posted By: popsakov
Stevie Nicks - The Other Side Of The Mirror (1989) {Japan 1st Press}

Stevie Nicks - The Other Side Of The Mirror (1989) {Japan 1st Press}
EAC Rip | FLAC (Img) + Cue + Log ~ 406 Mb | MP3 CBR320 ~ 147 Mb
Full Scans ~ 66 Mb | 01:01:06 | RAR 5% Recovery
Pop Rock, Soft Rock | Modern Records / Toshiba-EMI Ltd. #CP32-5851

Stevie Nicks' fourth solo album received more than its share of negative reviews from rock critics, who seemed to mistake her poetic and not always terribly discernible lyrics for pretentiousness. Although not as strong as Nicks' three previous solo dates, The Other Side of the Mirror is a decent album that has many more pluses than minuses. While there are a few less-than-memorable moments, some of the songs – including "Long Way to Go," "Ghosts," and "Whole Lotta Trouble" – are fairly strong. Nicks' more devoted followers will want this album, which should be purchased only if one already has Bella Donna, The Wild Heart, and Rock a Little.

~ Alex Henderson, All Music

***************

Stevie Nicks - The Other Side Of The Mirror (1989) {Japan 1st Press}

Stevie Nicks - The Other Side Of The Mirror (1989) {Japan 1st Press}

Track List:

01. Rooms On Fire [0:04:26.05]
02. Long Way To Go [0:04:07.67]
03. Two Kinds Of Love [0:04:46.30]
04. Ooh My Love [0:05:03.60]
05. Ghosts [0:04:54.33]
06. Whole Lotta Trouble [0:04:55.12]
07. Fire Burning [0:03:16.35]
08. Cry Wolf [0:04:09.60]
09. Alice [0:05:47.00]
10. Juliet [0:04:51.68]
11. Doing The Best That I Can (Escape From Berlin) [0:05:36.05]
12. I Still Miss Someone (Blue Eyes) [0:04:12.07]
13. Has Anyone Ever Written Anything For You (Live) [0:04:59.30]

Personnel:
Stevie Nicks - vocals, percussion, tambourine
Lori Nicks, Sharon Celani - backing vocals
Rupert Hine - keyboards, percussion, drums
Geoff Dugmore, Jerry Marotta - drums
Rick Nowels - keyboards, guitar, backing vocals
Bruce Hornsby - piano, vocals
Kenny G - saxophone
Gary Grant, Jerry Hey, Larry Williams, Marc Russo - horns
Kelly Johnston - whistle
Jamie West-Oram, Mike Campbell, Waddy Wachtel - guitar
Vail Johnson - bass guitar
Derek Murphy, Tony Levin - bass

Exact Audio Copy V1.3 from 2. September 2016

EAC extraction logfile from 13. May 2017, 1:35

Stevie Nicks / The Other Side Of The Mirror

Used drive : PLEXTOR DVDR PX-716A Adapter: 1 ID: 0

Read mode : Secure
Utilize accurate stream : Yes
Defeat audio cache : Yes
Make use of C2 pointers : No

Read offset correction : 30
Overread into Lead-In and Lead-Out : No
Fill up missing offset samples with silence : Yes
Delete leading and trailing silent blocks : No
Null samples used in CRC calculations : Yes
Used interface : Native Win32 interface for Win NT & 2000

Used output format : User Defined Encoder
Selected bitrate : 1024 kBit/s
Quality : High
Add ID3 tag : No
Command line compressor : C:\Program Files (x86)\Exact Audio Copy\FLAC\FLAC.EXE
Additional command line options : -6 -V -T "ARTIST=%artist%" -T "TITLE=%title%" -T "ALBUM=%albumtitle%" -T "DATE=%year%" -T "TRACKNUMBER=%tracknr%" -T "GENRE=%genre%" -T "COMMENT=%comment%" -T "BAND=%albuminterpret%" -T "ALBUMARTIST=%albuminterpret%" -T "COMPOSER=%composer%" %haslyrics%–tag-from-file=LYRICS="%lyricsfile%"%haslyrics% -T "DISCNUMBER=%cdnumber%" -T "TOTALDISCS=%totalcds%" -T "TOTALTRACKS=%numtracks%" %hascover%–picture="%coverfile%"%hascover% %source% -o %dest%


TOC of the extracted CD

Track | Start | Length | Start sector | End sector
––––––––––––––––––––––––––––-
1 | 0:00.00 | 4:26.05 | 0 | 19954
2 | 4:26.05 | 4:07.67 | 19955 | 38546
3 | 8:33.72 | 4:46.30 | 38547 | 60026
4 | 13:20.27 | 5:03.60 | 60027 | 82811
5 | 18:24.12 | 4:54.33 | 82812 | 104894
6 | 23:18.45 | 4:55.12 | 104895 | 127031
7 | 28:13.57 | 3:16.35 | 127032 | 141766
8 | 31:30.17 | 4:09.60 | 141767 | 160501
9 | 35:40.02 | 5:47.00 | 160502 | 186526
10 | 41:27.02 | 4:51.68 | 186527 | 208419
11 | 46:18.70 | 5:36.05 | 208420 | 233624
12 | 51:55.00 | 4:12.07 | 233625 | 252531
13 | 56:07.07 | 4:59.30 | 252532 | 274986


Range status and errors

Selected range

Filename C:\mm\Fleetwood Mac\Solo\Stevie Nicks\1989 - The Other Side Of The Mirror [CP32-5851]\Stevie Nicks - The Other Side Of The Mirror.wav

Peak level 100.0 %
Extraction speed 13.2 X
Range quality 100.0 %
Test CRC 3021AACE
Copy CRC 3021AACE
Copy OK

No errors occurred


AccurateRip summary

Track 1 not present in database
Track 2 not present in database
Track 3 not present in database
Track 4 not present in database
Track 5 not present in database
Track 6 not present in database
Track 7 not present in database
Track 8 not present in database
Track 9 not present in database
Track 10 not present in database
Track 11 not present in database
Track 12 not present in database
Track 13 not present in database

None of the tracks are present in the AccurateRip database

End of status report

–– CUETools DB Plugin V2.1.6

[CTDB TOCID: 7RT4DsCyOleRnWbdALBouQtez18-] found
Submit result: 7RT4DsCyOleRnWbdALBouQtez18- has been confirmed
Track | CTDB Status
1 | (2/2) Accurately ripped
2 | (2/2) Accurately ripped
3 | (2/2) Accurately ripped
4 | (2/2) Accurately ripped
5 | (2/2) Accurately ripped
6 | (2/2) Accurately ripped
7 | (2/2) Accurately ripped
8 | (2/2) Accurately ripped
9 | (2/2) Accurately ripped
10 | (2/2) Accurately ripped
11 | (2/2) Accurately ripped
12 | (2/2) Accurately ripped
13 | (2/2) Accurately ripped

foobar2000 1.2.6 / Dynamic Range Meter 1.1.1
log date: 2017-05-14 00:49:26

––––––––––––––––––––––––––––––––––––––––
Analyzed: Stevie Nicks / The Other Side Of The Mirror
––––––––––––––––––––––––––––––––––––––––

DR Peak RMS Duration Track
––––––––––––––––––––––––––––––––––––––––
DR12 -1.53 dB -15.55 dB 4:26 01-Rooms On Fire
DR13 -0.85 dB -15.89 dB 4:08 02-Long Way To Go
DR13 -1.35 dB -17.68 dB 4:46 03-Two Kinds Of Love
DR13 -0.92 dB -16.51 dB 5:04 04-Ooh My Love
DR12 -0.80 dB -17.57 dB 4:54 05-Ghosts
DR12 0.00 dB -15.49 dB 4:55 06-Whole Lotta Trouble
DR13 -0.88 dB -15.92 dB 3:16 07-Fire Burning
DR13 0.00 dB -18.33 dB 4:10 08-Cry Wolf
DR13 -2.05 dB -18.02 dB 5:47 09-Alice
DR14 -0.86 dB -17.27 dB 4:52 10-Juliet
DR13 -0.91 dB -17.43 dB 5:36 11-Doing The Best That I Can (Escape From Berlin)
DR13 -1.35 dB -17.29 dB 4:12 12-I Still Miss Someone (Blue Eyes)
DR12 -3.23 dB -19.06 dB 4:59 13-Has Anyone Ever Written Anything For You (Live)
––––––––––––––––––––––––––––––––––––––––

Number of tracks: 13
Official DR value: DR13

Samplerate: 44100 Hz
Channels: 2
Bits per sample: 16
Bitrate: 886 kbps
Codec: FLAC
================================================================================

[CUETools log; Date: 14.05.2017 0:48:25; Version: 2.1.5]
[CTDB TOCID: 7RT4DsCyOleRnWbdALBouQtez18-] found.
Track | CTDB Status
1 | (3/3) Accurately ripped
2 | (3/3) Accurately ripped
3 | (3/3) Accurately ripped
4 | (3/3) Accurately ripped
5 | (3/3) Accurately ripped
6 | (3/3) Accurately ripped
7 | (3/3) Accurately ripped
8 | (3/3) Accurately ripped
9 | (3/3) Accurately ripped
10 | (3/3) Accurately ripped
11 | (3/3) Accurately ripped
12 | (3/3) Accurately ripped
13 | (3/3) Accurately ripped
[AccurateRip ID: 001cdd2c-0121ef04-af0e520d] disk not present in database.

Track Peak [ CRC32 ] [W/O NULL] [ LOG ]
– 100,0 [3021AACE] [B2E348DB] CRC32
01 83,8 [3D70D23F] [9CDBBFA9]
02 90,6 [5084F1B6] [1760C7FA]
03 85,5 [EB667B14] [64AFB726]
04 89,9 [7E630017] [FDE9C28D]
05 91,2 [F315DC10] [EA470B0F]
06 100,0 [3DD76160] [68C3EC1C]
07 90,3 [C3D5A24A] [4566691C]
08 100,0 [95130AF7] [E3092AB5]
09 78,9 [F22CEA0B] [21F015BB]
10 90,5 [E571C0D3] [BDCF812B]
11 90,0 [1E4246B1] [E3990FD1]
12 85,5 [9D3C28E1] [D2120D08]
13 68,9 [61717DDC] [A1B5C153]

Stevie Nicks - The Other Side Of The Mirror (1989) {Japan 1st Press}


All thanks go to sergych

>>> Stevie Nicks in my Blog <<<

DOWNLOAD: