Tags
Language
Tags

Stevie Wonder ‎- Ballad Collection (1999)

Posted By: Rtax
Stevie Wonder ‎- Ballad Collection (1999)

Stevie Wonder ‎- Ballad Collection (1999)
EAC Rip | FLAC (tracks, cue, log, scans) - 449 MB | MP3 CBR 320 kbps - 182 MB
1:14:02 | Funk, Soul, Pop, Rhythm & Blues, Ballad | Label: Universal / Motown

18 of the greatest love songs from the entire career of this legendary Motown vocalist. Includes 'My Cherie Amour', 'You Are the Sunshine of My Life', 'You And I', 'Stay Gold' and 'Overjoyed'. 1999 release. Universal. 1999.

Tracklist
1. You Are The Sunshine Of My Life (02:53)
2. My Cherie Amour (02:53)
3. Golden Lady (04:58)
4. You And I (04:40)
5. If Ever (04:49)
6. Too Shy To Say (03:30)
7. All In Love Is Fair (03:43)
8. For Your Love (04:07)
9. Never Dreamed You'd Leave In Summer (02:57)
10. If It's Magic (03:15)
11. Overjoyed (03:46)
12. Send One Your Love (04:03)
13. Kiss Lonely Good-Bye (04:10)
14. Love's In Need Of Love Today (07:08)
15. Ribbon In The Sky (05:40)
16. Stay Gold (03:36)
17. Lately (04:07)
18. Feel The Fire (03:47)
Exact Audio Copy V1.5 from 20. February 2020

EAC extraction logfile from 31. July 2020, 19:56

Stevie Wonder / Ballad Collection

Used drive : ASUS SDRW-08U9M-U Adapter: 1 ID: 0

Read mode : Secure
Utilize accurate stream : Yes
Defeat audio cache : Yes
Make use of C2 pointers : No

Read offset correction : 6
Overread into Lead-In and Lead-Out : No
Fill up missing offset samples with silence : Yes
Delete leading and trailing silent blocks : No
Null samples used in CRC calculations : Yes
Used interface : Native Win32 interface for Win NT & 2000
Gap handling : Appended to previous track

Used output format : User Defined Encoder
Selected bitrate : 1024 kBit/s
Quality : High
Add ID3 tag : No
Command line compressor : C:\Program Files (x86)\Exact Audio Copy\Flac\flac.exe
Additional command line options : -8 -e -p -V -T "ARTIST=%artist%" -T "TITLE=%title%" -T "ALBUM=%albumtitle%" -T "DATE=%year%" -T "TRACKNUMBER=%tracknr%" -T "GENRE=%genre%" -T "COMMENT=%comment%" -T "BAND=%albuminterpret%" -T "ALBUMARTIST=%albuminterpret%" -T "COMPOSER=%composer%" %haslyrics%–tag-from-file=LYRICS="%lyricsfile%"%haslyrics% -T "DISCNUMBER=%cdnumber%" -T "TOTALDISCS=%totalcds%" -T "TOTALTRACKS=%numtracks%" %hascover%–picture="%coverfile%"%hascover% %source% -o %dest%


TOC of the extracted CD

Track | Start | Length | Start sector | End sector
––––––––––––––––––––––––––––-
1 | 0:00.00 | 2:52.70 | 0 | 12969
2 | 2:52.70 | 2:53.25 | 12970 | 25969
3 | 5:46.20 | 4:58.12 | 25970 | 48331
4 | 10:44.32 | 4:39.43 | 48332 | 69299
5 | 15:24.00 | 4:49.15 | 69300 | 90989
6 | 20:13.15 | 3:30.10 | 90990 | 106749
7 | 23:43.25 | 3:43.32 | 106750 | 123506
8 | 27:26.57 | 4:07.00 | 123507 | 142031
9 | 31:33.57 | 2:56.63 | 142032 | 155294
10 | 34:30.45 | 3:15.05 | 155295 | 169924
11 | 37:45.50 | 3:45.40 | 169925 | 186839
12 | 41:31.15 | 4:03.05 | 186840 | 205069
13 | 45:34.20 | 4:10.30 | 205070 | 223849
14 | 49:44.50 | 7:07.57 | 223850 | 255931
15 | 56:52.32 | 5:39.63 | 255932 | 281419
16 | 62:32.20 | 3:35.57 | 281420 | 297601
17 | 66:08.02 | 4:07.25 | 297602 | 316151
18 | 70:15.27 | 3:46.70 | 316152 | 333171


Track 1

Filename C:\-=EAC Rips=-\Stevie Wonder - Ballad Collection (1999) {POCT-1136}\01. You Are The Sunshine Of My Life.wav

Pre-gap length 0:00:02.00

Peak level 89.1 %
Extraction speed 1.2 X
Track quality 100.0 %
Test CRC 5E05EBF0
Copy CRC 5E05EBF0
Accurately ripped (confidence 20) [E7D912A2] (AR v2)
Copy OK

Track 2

Filename C:\-=EAC Rips=-\Stevie Wonder - Ballad Collection (1999) {POCT-1136}\02. My Cherie Amour.wav

Pre-gap length 0:00:01.73

Peak level 78.0 %
Extraction speed 1.3 X
Track quality 100.0 %
Test CRC AB6A2550
Copy CRC AB6A2550
Accurately ripped (confidence 21) [700C7CC2] (AR v2)
Copy OK

Track 3

Filename C:\-=EAC Rips=-\Stevie Wonder - Ballad Collection (1999) {POCT-1136}\03. Golden Lady.wav

Pre-gap length 0:00:01.73

Peak level 77.6 %
Extraction speed 1.4 X
Track quality 99.9 %
Test CRC 57066A94
Copy CRC 57066A94
Accurately ripped (confidence 20) [44A1A1B0] (AR v2)
Copy OK

Track 4

Filename C:\-=EAC Rips=-\Stevie Wonder - Ballad Collection (1999) {POCT-1136}\04. You And I (We Can Conquer The World).wav

Pre-gap length 0:00:01.73

Peak level 97.7 %
Extraction speed 1.6 X
Track quality 100.0 %
Test CRC 8F269D13
Copy CRC 8F269D13
Accurately ripped (confidence 21) [9285A6BB] (AR v2)
Copy OK

Track 5

Filename C:\-=EAC Rips=-\Stevie Wonder - Ballad Collection (1999) {POCT-1136}\05. If Ever.wav

Pre-gap length 0:00:01.73

Peak level 61.2 %
Extraction speed 1.7 X
Track quality 100.0 %
Test CRC 1C502B0B
Copy CRC 1C502B0B
Accurately ripped (confidence 21) [A806B429] (AR v2)
Copy OK

Track 6

Filename C:\-=EAC Rips=-\Stevie Wonder - Ballad Collection (1999) {POCT-1136}\06. Too Shy To Say.wav

Pre-gap length 0:00:01.73

Peak level 99.9 %
Extraction speed 1.5 X
Track quality 99.9 %
Test CRC B684A823
Copy CRC B684A823
Accurately ripped (confidence 21) [3DD6F657] (AR v2)
Copy OK

Track 7

Filename C:\-=EAC Rips=-\Stevie Wonder - Ballad Collection (1999) {POCT-1136}\07. All In Love Is Fair.wav

Pre-gap length 0:00:01.73

Peak level 91.1 %
Extraction speed 1.6 X
Track quality 99.9 %
Test CRC 5460CD41
Copy CRC 5460CD41
Accurately ripped (confidence 21) [E9ABB3D3] (AR v2)
Copy OK

Track 8

Filename C:\-=EAC Rips=-\Stevie Wonder - Ballad Collection (1999) {POCT-1136}\08. For Your Love.wav

Pre-gap length 0:00:01.73

Peak level 94.4 %
Extraction speed 1.7 X
Track quality 99.9 %
Test CRC 41963E6D
Copy CRC 41963E6D
Accurately ripped (confidence 21) [EF735C41] (AR v2)
Copy OK

Track 9

Filename C:\-=EAC Rips=-\Stevie Wonder - Ballad Collection (1999) {POCT-1136}\09. Never Dreamed You'd Leave In Summer.wav

Pre-gap length 0:00:01.73

Peak level 80.7 %
Extraction speed 1.9 X
Track quality 100.0 %
Test CRC 7E3815F2
Copy CRC 7E3815F2
Accurately ripped (confidence 20) [C9F4341F] (AR v2)
Copy OK

Track 10

Filename C:\-=EAC Rips=-\Stevie Wonder - Ballad Collection (1999) {POCT-1136}\10. If It's Magic.wav

Pre-gap length 0:00:02.00

Peak level 100.0 %
Extraction speed 2.0 X
Track quality 100.0 %
Test CRC 7568A1BA
Copy CRC 7568A1BA
Accurately ripped (confidence 20) [6F6583E5] (AR v2)
Copy OK

Track 11

Filename C:\-=EAC Rips=-\Stevie Wonder - Ballad Collection (1999) {POCT-1136}\11. Overjoyed.wav

Pre-gap length 0:00:02.40

Peak level 89.1 %
Extraction speed 2.1 X
Track quality 100.0 %
Test CRC 827C83E4
Copy CRC 827C83E4
Accurately ripped (confidence 20) [5E469AA0] (AR v2)
Copy OK

Track 12

Filename C:\-=EAC Rips=-\Stevie Wonder - Ballad Collection (1999) {POCT-1136}\12. Send One Your Love.wav

Pre-gap length 0:00:02.73

Peak level 75.0 %
Extraction speed 2.2 X
Track quality 100.0 %
Test CRC 637D001F
Copy CRC 637D001F
Accurately ripped (confidence 20) [3F1898BD] (AR v2)
Copy OK

Track 13

Filename C:\-=EAC Rips=-\Stevie Wonder - Ballad Collection (1999) {POCT-1136}\13. Kiss Lonely Good-Bye.wav

Pre-gap length 0:00:01.73

Peak level 84.1 %
Extraction speed 2.3 X
Track quality 100.0 %
Test CRC 8EC44745
Copy CRC 8EC44745
Accurately ripped (confidence 20) [164F2C04] (AR v2)
Copy OK

Track 14

Filename C:\-=EAC Rips=-\Stevie Wonder - Ballad Collection (1999) {POCT-1136}\14. Love's In Need Of Love Today.wav

Pre-gap length 0:00:01.73

Peak level 97.2 %
Extraction speed 2.5 X
Track quality 100.0 %
Test CRC 68D9AAC0
Copy CRC 68D9AAC0
Accurately ripped (confidence 20) [760338A9] (AR v2)
Copy OK

Track 15

Filename C:\-=EAC Rips=-\Stevie Wonder - Ballad Collection (1999) {POCT-1136}\15. Ribbon In The Sky.wav

Pre-gap length 0:00:01.73

Peak level 100.0 %
Extraction speed 2.6 X
Track quality 100.0 %
Test CRC 7A5C5DA8
Copy CRC 7A5C5DA8
Accurately ripped (confidence 20) [0722418A] (AR v2)
Copy OK

Track 16

Filename C:\-=EAC Rips=-\Stevie Wonder - Ballad Collection (1999) {POCT-1136}\16. Stay Gold.wav

Pre-gap length 0:00:01.73

Peak level 100.0 %
Extraction speed 2.2 X
Track quality 99.9 %
Test CRC 7C4C9FE9
Copy CRC 7C4C9FE9
Accurately ripped (confidence 20) [87242C1E] (AR v2)
Copy OK

Track 17

Filename C:\-=EAC Rips=-\Stevie Wonder - Ballad Collection (1999) {POCT-1136}\17. Lately.wav

Pre-gap length 0:00:01.73

Peak level 99.9 %
Extraction speed 2.3 X
Track quality 99.9 %
Test CRC CF34FC35
Copy CRC CF34FC35
Accurately ripped (confidence 20) [B0935251] (AR v2)
Copy OK

Track 18

Filename C:\-=EAC Rips=-\Stevie Wonder - Ballad Collection (1999) {POCT-1136}\18. To Feel The Fire.wav

Pre-gap length 0:00:01.73

Peak level 68.2 %
Extraction speed 2.6 X
Track quality 100.0 %
Test CRC 3F6321BE
Copy CRC 3F6321BE
Accurately ripped (confidence 19) [7D9C8569] (AR v2)
Copy OK


All tracks accurately ripped

No errors occurred

End of status report

–– CUETools DB Plugin V2.1.6

[CTDB TOCID: syYLSqH2Ata_7egG1eilO7Xo_jA-] found
Submit result: syYLSqH2Ata_7egG1eilO7Xo_jA- has been confirmed
Track | CTDB Status
1 | (143/145) Accurately ripped
2 | (143/145) Accurately ripped
3 | (143/145) Accurately ripped
4 | (144/145) Accurately ripped
5 | (144/145) Accurately ripped
6 | (144/145) Accurately ripped
7 | (144/145) Accurately ripped
8 | (143/145) Accurately ripped
9 | ( 85/145) Accurately ripped
10 | (143/145) Accurately ripped
11 | (142/145) Accurately ripped
12 | (141/145) Accurately ripped
13 | (142/145) Accurately ripped
14 | (143/145) Accurately ripped
15 | (140/145) Accurately ripped
16 | (141/145) Accurately ripped
17 | (140/145) Accurately ripped
18 | (136/145) Accurately ripped


==== Log checksum 954AE4198F40B0273F291A2DAE535371CB20B58E096DB50F68561F0F4C81DA7B ====