Tags
Language
Tags
April 2024
Su Mo Tu We Th Fr Sa
31 1 2 3 4 5 6
7 8 9 10 11 12 13
14 15 16 17 18 19 20
21 22 23 24 25 26 27
28 29 30 1 2 3 4

Sting - The Bridge (2021) {Japanese Limited Edition, Bonus Track}

Posted By: popsakov
Sting - The Bridge (2021) {Japanese Limited Edition, Bonus Track}

Sting - The Bridge (2021) {Japanese Limited Edition, Bonus Track}
EAC Rip | FLAC (Tracks) + Cue + m3u + Log ~ 318 Mb | MP3 CBR320 ~ 118 Mb
Cover Included | 00:47:36 | RAR 5% Recovery
Pop Rock | A&M Records / Universal Music #UICY-16021

Sting recorded 'The Bridge' during the pandemic with a coterie of trusted musicians beaming into his studio remotely. That easy sense of musical camaraderie, connection and kinship is on full display in the lead single 'If It's Love', an unabashed pop song which is lent wings by a whistled refrain, joyful handclaps, and uplifting brass and strings. The urgently staccato, electric guitar-driven 'Rushing Water' soars with Sting's trademark melodic invention and vivid imagery. The decidedly romantic 'For Her Love' is a delicate pledge that harkens back to some of Sting's classic ballads. That said, Sting can breakdown the genesis of 'Harmony Road', a jazzy jam that artfully combines fever-dream, social realism and autobiography. The circle of trust of a group of likeminded musicians pulling in a myriad of brilliant directions but with one accord, is a solid foundation of 'The Bridge'.

***************

Track List:

01. Rushing Water [3:18]
02. If It’s Love [3:15]
03. The Book Of Numbers [3:19]
04. Loving You [4:25]
05. Harmony Road [3:19]
06. For Her Love [3:46]
07. The Hills On The Border [4:17]
08. Captain Bateman [4:15]
09. The Bells Of St. Thomas [4:09]
10. The Bridge [2:34]
11. Waters Of Tyne [2:11]
12. Captain Bateman's Basement [3:42]
13. (Sittin' On) The Dock Of The Bay [2:55]
14. I Guess The Lord Must Be In New York City [2:19]

Exact Audio Copy V1.3 from 2. September 2016

EAC extraction logfile from 22. November 2021, 12:49

Sting / The Bridge

Used drive : TSSTcorpDVD+-RW SU-208GB Adapter: 1 ID: 0

Read mode : Secure
Utilize accurate stream : Yes
Defeat audio cache : Yes
Make use of C2 pointers : No

Read offset correction : 6
Overread into Lead-In and Lead-Out : No
Fill up missing offset samples with silence : Yes
Delete leading and trailing silent blocks : No
Null samples used in CRC calculations : Yes
Used interface : Native Win32 interface for Win NT & 2000
Gap handling : Appended to previous track

Used output format : User Defined Encoder
Selected bitrate : 1024 kBit/s
Quality : High
Add ID3 tag : No
Command line compressor : C:\Program Files (x86)\Exact Audio Copy\Flac\flac.exe
Additional command line options : -8 -V -T "ARTIST=%artist%" -T "TITLE=%title%" -T "ALBUM=%albumtitle%" -T "DATE=%year%" -T "TRACKNUMBER=%tracknr%" -T "GENRE=%genre%" -T "PERFORMER=%albuminterpret%" -T "COMPOSER=%composer%" %haslyrics%–tag-from-file=LYRICS="%lyricsfile%"%haslyrics% -T "ALBUMARTIST=%albumartist%" -T "DISCNUMBER=%cdnumber%" -T "TOTALDISCS=%totalcds%" -T "TOTALTRACKS=%numtracks%" -T "COMMENT=%comment%" %source% -o %dest%


TOC of the extracted CD

Track | Start | Length | Start sector | End sector
––––––––––––––––––––––––––––-
1 | 0:00.00 | 3:17.58 | 0 | 14832
2 | 3:17.58 | 3:14.30 | 14833 | 29412
3 | 6:32.13 | 3:18.39 | 29413 | 44301
4 | 9:50.52 | 4:24.28 | 44302 | 64129
5 | 14:15.05 | 3:18.13 | 64130 | 78992
6 | 17:33.18 | 3:45.04 | 78993 | 95871
7 | 21:18.22 | 4:16.55 | 95872 | 115126
8 | 25:35.02 | 4:14.15 | 115127 | 134191
9 | 29:49.17 | 4:08.23 | 134192 | 152814
10 | 33:57.40 | 2:33.55 | 152815 | 164344
11 | 36:31.20 | 2:10.22 | 164345 | 174116
12 | 38:41.42 | 3:41.08 | 174117 | 190699
13 | 42:22.50 | 2:54.59 | 190700 | 203808
14 | 45:17.34 | 2:18.10 | 203809 | 214168


Track 1

Filename C:\Rips\01 - Rushing Water.wav

Pre-gap length 0:00:02.00

Peak level 100.0 %
Extraction speed 1.1 X
Track quality 100.0 %
Test CRC B4F46C05
Copy CRC B4F46C05
Track not present in AccurateRip database
Copy OK

Track 2

Filename C:\Rips\02 - If It’s Love.wav

Peak level 100.0 %
Extraction speed 1.2 X
Track quality 100.0 %
Test CRC D3B83B04
Copy CRC D3B83B04
Track not present in AccurateRip database
Copy OK

Track 3

Filename C:\Rips\03 - The Book Of Numbers.wav

Peak level 100.0 %
Extraction speed 1.1 X
Track quality 99.9 %
Test CRC 164E3BCF
Copy CRC 164E3BCF
Track not present in AccurateRip database
Copy OK

Track 4

Filename C:\Rips\04 - Loving You.wav

Peak level 100.0 %
Extraction speed 1.4 X
Track quality 100.0 %
Test CRC F7CF25E3
Copy CRC F7CF25E3
Track not present in AccurateRip database
Copy OK

Track 5

Filename C:\Rips\05 - Harmony Road.wav

Peak level 100.0 %
Extraction speed 1.2 X
Track quality 99.9 %
Test CRC A7A5FE35
Copy CRC A7A5FE35
Track not present in AccurateRip database
Copy OK

Track 6

Filename C:\Rips\06 - For Her Love.wav

Peak level 99.9 %
Extraction speed 1.5 X
Track quality 100.0 %
Test CRC 8FF7C578
Copy CRC 8FF7C578
Track not present in AccurateRip database
Copy OK

Track 7

Filename C:\Rips\07 - The Hills On The Border.wav

Peak level 100.0 %
Extraction speed 1.7 X
Track quality 100.0 %
Test CRC 468240DC
Copy CRC 468240DC
Track not present in AccurateRip database
Copy OK

Track 8

Filename C:\Rips\08 - Captain Bateman.wav

Peak level 100.0 %
Extraction speed 1.7 X
Track quality 100.0 %
Test CRC 302A84F9
Copy CRC 302A84F9
Track not present in AccurateRip database
Copy OK

Track 9

Filename C:\Rips\09 - The Bells Of St. Thomas.wav

Peak level 100.0 %
Extraction speed 1.6 X
Track quality 99.9 %
Test CRC 3C2D0D1A
Copy CRC 3C2D0D1A
Track not present in AccurateRip database
Copy OK

Track 10

Filename C:\Rips\10 - The Bridge.wav

Peak level 100.0 %
Extraction speed 1.7 X
Track quality 100.0 %
Test CRC 8C770BEC
Copy CRC 8C770BEC
Track not present in AccurateRip database
Copy OK

Track 11

Filename C:\Rips\11 - Waters Of Tyne.wav

Peak level 100.0 %
Extraction speed 1.7 X
Track quality 100.0 %
Test CRC 2BC7BC44
Copy CRC 2BC7BC44
Track not present in AccurateRip database
Copy OK

Track 12

Filename C:\Rips\12 - Captain Bateman's Basement.wav

Peak level 100.0 %
Extraction speed 1.7 X
Track quality 99.9 %
Test CRC 7F1E2E2B
Copy CRC 7F1E2E2B
Track not present in AccurateRip database
Copy OK

Track 13

Filename C:\Rips\13 - (Sittin' On) The Dock Of The Bay.wav

Peak level 100.0 %
Extraction speed 1.9 X
Track quality 100.0 %
Test CRC 5531C159
Copy CRC 5531C159
Track not present in AccurateRip database
Copy OK

Track 14

Filename C:\Rips\14 - I Guess The Lord Must Be In New York City.wav

Peak level 100.0 %
Extraction speed 1.5 X
Track quality 99.9 %
Test CRC 86A52A57
Copy CRC 86A52A57
Track not present in AccurateRip database
Copy OK


None of the tracks are present in the AccurateRip database

No errors occurred

End of status report

–– CUETools DB Plugin V2.1.6

[CTDB TOCID: mT43yc7LNH_EwIIW1WszEVhr5a4-] found
Submit result: mT43yc7LNH_EwIIW1WszEVhr5a4- has been confirmed
Track | CTDB Status
1 | (3/3) Accurately ripped
2 | (3/3) Accurately ripped
3 | (3/3) Accurately ripped
4 | (3/3) Accurately ripped
5 | (3/3) Accurately ripped
6 | (3/3) Accurately ripped
7 | (3/3) Accurately ripped
8 | (3/3) Accurately ripped
9 | (3/3) Accurately ripped
10 | (3/3) Accurately ripped
11 | (3/3) Accurately ripped
12 | (3/3) Accurately ripped
13 | (3/3) Accurately ripped
14 | (3/3) Accurately ripped


==== Log checksum D1AF3615A5ABEC684A3F970B9488B0D4BBB1EC6D14BFD40B2209497D206C82B9 ====

All thanks go to the original ripper(s) …

>>> Sting in my Blog <<<

DOWNLOAD: