Tags
Language
Tags

Straight No Chaser - I’ll Have Another…Christmas Album (2016) {Deluxe Edition}

Posted By: popsakov
Straight No Chaser - I’ll Have Another…Christmas Album (2016) {Deluxe Edition}

Straight No Chaser - I’ll Have Another…Christmas Album (2016) {Deluxe Edition}
EAC Rip | FLAC (Img) + Cue + Log ~ 406 Mb | MP3 CBR320 ~ 179 Mb
Full Scans | 00:51:42 | RAR 5% Recovery
Acapella, Pop, Holiday | Atlantic / ATCO #557306-2

Acclaimed a cappella ensemble Straight No Chaser's cheekily titled 2016 effort I'll Have Another…Christmas Album is the group's third full-length holiday album since their 2008 debut, Holiday Spirits. Recorded at their original home of Indiana University in Bloomington, Indiana, the album features a handful of beloved Christmas carols and holiday standards including "Do You Hear What I Hear?," "Joy to the World," and "Have Yourself a Merry Little Christmas." As with previous albums, Straight No Chaser also apply their sophisticated harmonies to several contemporary pop classics like Mariah Carey's "All I Want for Christmas Is You," Kenny Rogers' "The Greatest Gift of All," and more. Also included are several brand new compositions from Straight No Chaser including the buoyant "Feels Like Christmas," featuring Jana Kramer.

~ Matt Collar, All Music
Straight No Chaser - I’ll Have Another…Christmas Album (2016) {Deluxe Edition}


***************

Straight No Chaser - I’ll Have Another…Christmas Album (2016) {Deluxe Edition}

Track List:

01. All I Want For Christmas Is You [3:41]
02. Mary, Did You Know? [3:30]
03. Feels Like Christmas (Feat. Jana Kramer) [2:59]
04. Do You Hear What I Hear [4:00]
05. Joy To The World [3:09]
06. Have Yourself A Merry Little Christmas [3:20]
07. Run Run Rudolph [2:08]
08. The Greatest Gift Of All [3:42]
09. Up On The Housetop [2:48]
10. Sing We Now Of Christmas [2:06]
11. Mele Kalikimaka [2:45]
12. Christmas Lights [3:24]
13. Lully Lullay (Coventry Carol) [2:51]
14. Winter Wonderland [2:24]
15. To Christmas! (The Drinking Song) [3:14]
Bonus Tracks
16. What Christmas Means to Me [3:00]
17. Go Tell It On The Mountain [2:40]

Exact Audio Copy V1.0 beta 3 from 29. August 2011

Отчёт EAC об извлечении, выполненном 7. декабря 2016, 19:18

Straight No Chaser / I’ll Have Another…Christmas Album

Дисковод: ATAPI iHAS424 A Adapter: 0 ID: 0

Режим чтения : Достоверность
Использование точного потока : Да
Отключение кэша аудио : Да
Использование указателей C2 : Нет

Коррекция смещения при чтении : 6
Способность читать области Lead-in и Lead-out : Нет
Заполнение пропущенных сэмплов тишиной : Да
Удаление блоков с тишиной в начале и конце : Нет
При вычислениях CRC использовались нулевые сэмплы : Да
Интерфейс : Установленный внешний ASPI-интерфейс

Выходной формат : Пользовательский кодировщик
Выбранный битрейт : 1024 kBit/s
Качество : Высокий
Добавление ID3-тега : Нет
Утилита сжатия : C:\Program Files\Exact Audio Copy\FLAC\FLAC.EXE
Дополнительные параметры : -8 -V -T "ARTIST=%artist%" -T "ALBUM=%albumtitle%" -T "DATE=%year%" -T "GENRE=%genre%" -T "COMMENT=ripped by izia1956" %source%


TOC извлечённого CD

Трек | Старт | Длительность | Начальный сектор | Конечный сектор
––––––––––––––––––––––––––––––––––-
1 | 0:00.00 | 3:41.15 | 0 | 16589
2 | 3:41.15 | 3:30.32 | 16590 | 32371
3 | 7:11.47 | 2:59.14 | 32372 | 45810
4 | 10:10.61 | 3:59.50 | 45811 | 63785
5 | 14:10.36 | 3:08.50 | 63786 | 77935
6 | 17:19.11 | 3:20.35 | 77936 | 92970
7 | 20:39.46 | 2:08.35 | 92971 | 102605
8 | 22:48.06 | 3:41.73 | 102606 | 119253
9 | 26:30.04 | 2:48.05 | 119254 | 131858
10 | 29:18.09 | 2:05.68 | 131859 | 141301
11 | 31:24.02 | 2:44.38 | 141302 | 153639
12 | 34:08.40 | 3:24.30 | 153640 | 168969
13 | 37:32.70 | 2:51.32 | 168970 | 181826
14 | 40:24.27 | 2:23.54 | 181827 | 192605
15 | 42:48.06 | 3:14.00 | 192606 | 207155
16 | 46:02.06 | 2:59.65 | 207156 | 220645
17 | 49:01.71 | 2:40.07 | 220646 | 232652


Характеристики диапазона извлечения и сообщения об ошибках

Выбранный диапазон

Имя файла D:\BitComet\Straight No Chaser(flac)\2016 - I’ll Have Another…Christmas Album\Straight No Chaser - I’ll Have Another…Christmas Album.wav

Пиковый уровень 99.8 %
Скорость извлечения 5.7 X
Качество диапазона 100.0 %
CRC теста 2149C260
CRC копии 2149C260
Копирование… OK

Ошибок не произошло


AccurateRip: сводка

Трек 1 : извлечено точно (доверие 1) [C717238F] (AR v2)
Трек 2 : извлечено точно (доверие 1) [A0856ACD] (AR v2)
Трек 3 : извлечено точно (доверие 1) [3402CF04] (AR v2)
Трек 4 : извлечено точно (доверие 1) [15E1718F] (AR v2)
Трек 5 : извлечено точно (доверие 1) [5E4664CB] (AR v2)
Трек 6 : извлечено точно (доверие 1) [5E96B488] (AR v2)
Трек 7 : извлечено точно (доверие 1) [04B0854E] (AR v2)
Трек 8 : извлечено точно (доверие 1) [E4C2FB1C] (AR v2)
Трек 9 : извлечено точно (доверие 1) [DB4A8A49] (AR v2)
Трек 10 : извлечено точно (доверие 1) [5CD67DFF] (AR v2)
Трек 11 : извлечено точно (доверие 1) [0E60790D] (AR v2)
Трек 12 : извлечено точно (доверие 1) [A5DFB4E8] (AR v2)
Трек 13 : извлечено точно (доверие 1) [1FA07D1F] (AR v2)
Трек 14 : извлечено точно (доверие 1) [9DEB63BA] (AR v2)
Трек 15 : извлечено точно (доверие 1) [D7D98B79] (AR v2)
Трек 16 : извлечено точно (доверие 1) [A5D9FE2A] (AR v2)
Трек 17 : извлечено точно (доверие 1) [1A5517DB] (AR v2)

Все треки извлечены точно

Конец отчёта

==== Контрольная сумма отчёта 07AB443EF62D44CB893AA2EA603753DEB5927BC285F09C7388E7F95AFB8BA3A1 ====

Straight No Chaser - I’ll Have Another…Christmas Album (2016) {Deluxe Edition}


All thanks go to izia1956

>>> Straight No Chaser in my Blog <<<

DOWNLOAD: