Subcategories

Valery Gergiev, Mariinsky Orchestra and Ballet - Stravinsky: The Firebird, Le Sacre du printemps (2009) [Blu-Ray]

Posted By: Vilboa
Valery Gergiev, Mariinsky Orchestra and Ballet - Stravinsky: The Firebird, Le Sacre du printemps (2009) [Blu-Ray]

Stravinsky - The Firebird, Le Sacre du printemps (Valery Gergiev, Mariinsky Orchestra and Ballet) (2009) [Blu-Ray]
BluRay | BDMV | MPEG-4 AVC Video / 19993 kbps / 1080i / 29,970 fps | 85 min | 20,8 Gb
Audio1: LPCM Audio / 2.0 / 16-bit | Audio2: DTS-HD Master Audio / 5.1 / 48 kHz / 2564 kbps / 24-bit

BluRay-rip | AVC | MKV 1920x1080 / 6215 kbps / 29,97 fps | 85 min | 4,62 Gb
Audio: DTS / 6ch / 48.0 KHz / 24 bits
Classical | BelAir

Today it is difficult to imagine the impact on audiences at the beginning of the 20th century of Serge Diaghilev (1872-1929) and his Ballets Russes. In celebration of the debut of the Ballets Russes in Paris in 1909, this wonderful Stravinsky evening at the Mariinsky Theatre showcases the original Nijinsky version of The Rite of Spring for the first time on DVD along with The Firebird, both conducted by Valery Gergiev. Thanks to the relentless work of Millicent Hodson, Nijinsky's original choreography has now been recreated, performed by the lead dancers and Ballet Company of the Saint Petersburg's Mariinsky Theatre conducted by Valery Geriev, known the world over for his interpretation of Stravinsky's works.

Cast:
The Firebird (1910):
The Firebird - Ekaterina Kondaurova
Ivan Tsarevich - Ilxy Kuznetsov
The Princess - Marianna Pavlova
Kashchei - Vladimir Ponomarev

Le Sacre du printemps (1913):
The Chosen One - Alexandra Iosifidi
300-Year-Old Woman - Elena Bazhenova
The Wise Elder - Vladimir Ponomarev
Mariinsky Orchestra and Ballet
Conductor - Valery Gergiev
Choreography by Michel Fokine & Vaslav Nijinsky


Disc Title: STRAVINSKY_BELAIR
Disc Size: 22 395 514 732 bytes
Protection: AACS
BD-Java: No
Playlist: 00000.MPLS
Size: 16 923 168 768 bytes
Length: 1:25:44.806
Total Bitrate: 26,31 Mbps
Video: MPEG-4 AVC Video / 19993 kbps / 1080i / 29,970 fps / 16:9 / High Profile 4.1
Audio: English / LPCM Audio / 2.0 / 48 kHz / 2304 kbps / 24-bit
Audio: English / DTS-HD Master Audio / 5.1 / 48 kHz / 2564 kbps / 24-bit (DTS Core: 5.1 / 48 kHz / 1509 kbps / 24-bit)


General
Unique ID : 211399080978705482184133390148288384953 (0x9F09FB6623D8B3B2A15E00603F640FB9)
Complete name : C:\Stravinsky_Ballets.mkv
Format : Matroska
Format version : Version 2
File size : 4.63 GiB
Duration : 1h 25mn
Overall bit rate : 7 726 Kbps
Movie name : title00
Encoded date : UTC 2017-07-22 06:47:32
Writing application : DVDFab 9.1.6.8
Writing library : libebml v0.7.8 + libmatroska v0.8.1

Video
ID : 1
Format : AVC
Format/Info : Advanced Video Codec
Format profile : High@L4.1
Format settings, CABAC : Yes
Format settings, ReFrames : 2 frames
Format settings, GOP : M=3, N=24
Codec ID : V_MPEG4/ISO/AVC
Duration : 1h 25mn
Bit rate : 6 215 Kbps
Width : 1 920 pixels
Height : 1 080 pixels
Display aspect ratio : 16:9
Frame rate mode : Constant
Frame rate : 29.970 fps
Color space : YUV
Chroma subsampling : 4:2:0
Bit depth : 8 bits
Scan type : Progressive
Bits/(Pixel*Frame) : 0.100
Stream size : 3.63 GiB (78%)
Writing library : x264 core 142
Encoding settings : cabac=1 / ref=1 / deblock=1:-1:-1 / analyse=0x3:0 / me=hex / subme=5 / psy=0 / mixed_ref=0 / me_range=16 / chroma_me=1 / trellis=0 / 8x8dct=1 / cqm=0 / deadzone=21,11 / fast_pskip=1 / chroma_qp_offset=0 / threads=8 / lookahead_threads=2 / sliced_threads=0 / nr=0 / decimate=1 / interlaced=0 / bluray_compat=0 / constrained_intra=0 / bframes=2 / b_pyramid=0 / b_adapt=1 / b_bias=0 / direct=1 / weightb=1 / open_gop=0 / weightp=0 / keyint=24 / keyint_min=13 / scenecut=40 / intra_refresh=0 / rc=abr / mbtree=0 / bitrate=6215 / ratetol=1.0 / qcomp=0.60 / qpmin=0 / qpmax=69 / qpstep=4 / ip_ratio=1.40 / pb_ratio=1.30 / aq=1:1.00
Default : Yes
Forced : No
Color primaries : BT.709
Transfer characteristics : BT.709
Matrix coefficients : BT.709
Color range : Limited

Audio
ID : 2
Format : DTS
Format/Info : Digital Theater Systems
Mode : 16
Format settings, Endianness : Big
Codec ID : A_DTS
Duration : 1h 25mn
Bit rate mode : Constant
Bit rate : 1 509 Kbps
Channel(s) : 6 channels
Channel positions : Front: L C R, Side: L R, LFE
Sampling rate : 48.0 KHz
Bit depth : 24 bits
Compression mode : Lossy
Stream size : 925 MiB (20%)
Language : English
Default : Yes
Forced : No

Menu
00:00:00.000 : en:Chapter 01
00:00:46.946 : en:Chapter 02
00:03:30.376 : en:Chapter 03
00:05:09.309 : en:Chapter 04
00:07:20.740 : en:Chapter 05
00:08:38.417 : en:Chapter 06
00:09:43.316 : en:Chapter 07
00:17:40.526 : en:Chapter 08
00:20:04.403 : en:Chapter 09
00:21:28.520 : en:Chapter 10
00:25:46.177 : en:Chapter 11
00:27:10.996 : en:Chapter 12
00:32:42.827 : en:Chapter 13
00:33:27.972 : en:Chapter 14
00:38:01.912 : en:Chapter 15
00:43:28.739 : en:Chapter 16
00:48:56.733 : en:Chapter 17
00:52:12.829 : en:Chapter 18
00:55:18.248 : en:Chapter 19
00:56:39.829 : en:Chapter 20
01:00:30.460 : en:Chapter 21
01:02:15.364 : en:Chapter 22
01:03:24.500 : en:Chapter 23
01:04:34.937 : en:Chapter 24
01:08:41.717 : en:Chapter 25
01:12:07.990 : en:Chapter 26
01:13:38.313 : en:Chapter 27
01:14:26.195 : en:Chapter 28
01:17:56.338 : en:Chapter 29


All screenshots taken from BDRip

Valery Gergiev, Mariinsky Orchestra and Ballet - Stravinsky: The Firebird, Le Sacre du printemps (2009) [Blu-Ray]