Subcategories

Stray Cats - Choo Choo Hot Fish (1992)

Posted By: uff
Stray Cats - Choo Choo Hot Fish (1992)

Stray Cats - Choo Choo Hot Fish (1992)
Rockabilly | 1cd | EAC Rip | Ape + Cue + Log | covers
Great Pyramid, 7 3333 35812-2 | rel: 1992 | 310Mb

An excellent album by one of the most underrated groups in rock. This album has all of the traditional Stray Cats moods. They are fast-paced and fun on "Please Don't Touch" and "Crybaby". They are are searching for the past and giving it homage on tracks like "My Heart Is A Liar" and "Elvis On Velvet." And no one covers the oldies like the Stray Cats as shown on such classic remakes of "Sleepwalk" and "Mystery Train." A fantastic CD produced by an original Stray Cat himself, Dave Edmunds. This album is among the best work of one of the best Rock/Rockabilly bands to tear into the music industry. ~Amazon

Track listing
01. Elvis on Velvet (4:23)
02. Cry Baby (3:49)
03. Please Don't Touch (3:05)
04. Sleepwalk (3:30)
05. Lust N Love (3:45)
06. Beautiful Blues (3:02)
07. Cross of Love (4:14)
08. Can't Go Back to Memphis (4:53)
09. Jade Idol (3:17)
10. My Heart Is a Liar (3:48)
11. Mystery Train (5:06)

Personnel
- Brian Setzer - guitar, lap steel, vocals
- Lee Rocker - upright bass, vocals
- Slim Jim Phantom - drums, vocals
- Dave Edmunds - guitar, vocals on "Cry Baby"


Exact Audio Copy V0.99 prebeta 4 from 23. January 2008

Отчёт EAC об извлечении, выполненном 1. ноября 2008, 21:29

Stray Cats / Choo Choo Hot Fish

Дисковод: _NEC DVD_RW ND-3550A Adapter: 5 ID: 0

Режим чтения : Достоверность
Использование точного потока : Да
Отключение кэша аудио : Да
Использование указателей C2 : Нет

Коррекция смещения при чтении : 48
Способность читать области Lead-in и Lead-out : Нет
Заполнение пропущенных сэмплов тишиной : Да
Удаление блоков с тишиной в начале и конце : Нет
При вычислениях CRC использовались нулевые сэмплы : Да
Интерфейс : Установленный внешний ASPI-интерфейс

Выходной формат : Monkey's Audio (без потерь)
Выбранный битрейт : High Lossless Compression
Качество : Высокий
Добавление ID3-тэга : Да
Утилита сжатия : C:\Program Files\Monkey's Audio\MAC.exe


TOC извлечённого CD

Трек | Старт | Длительность | Начальный сектор | Конечный сектор
––––––––––––––––––––––––––––––––––-
1 | 0:00.37 | 4:24.73 | 37 | 19909
2 | 4:25.35 | 3:51.22 | 19910 | 37256
3 | 8:16.57 | 3:06.38 | 37257 | 51244
4 | 11:23.20 | 3:32.17 | 51245 | 67161
5 | 14:55.37 | 3:47.65 | 67162 | 84251
6 | 18:43.27 | 3:03.25 | 84252 | 98001
7 | 21:46.52 | 4:15.58 | 98002 | 117184
8 | 26:02.35 | 4:54.32 | 117185 | 139266
9 | 30:56.67 | 3:18.08 | 139267 | 154124
10 | 34:15.00 | 3:49.37 | 154125 | 171336
11 | 38:04.37 | 5:06.70 | 171337 | 194356


Характеристики диапазона извлечения и сообщения об ошибках

Выбранный диапазон

Имя файла D:\Downloads\Stray Cats - Choo Choo Hot Fish\Stray Cats - Choo Choo Hot Fish.wav

Пиковый уровень 96.4 %
Качество диапазона 99.9 %
CRC теста 217B1DB6
CRC копии 217B1DB6
Копирование… OK

Ошибок не произошло


AccurateRip: сводка

Трек 1 точное извлечение (доверие 5) [17BD207B]
Трек 2 точное извлечение (доверие 5) [8DE8A817]
Трек 3 точное извлечение (доверие 5) [F40B31A6]
Трек 4 точное извлечение (доверие 5) [9AE688C5]
Трек 5 точное извлечение (доверие 5) [9036AC35]
Трек 6 точное извлечение (доверие 5) [002E680C]
Трек 7 точное извлечение (доверие 5) [28C30690]
Трек 8 точное извлечение (доверие 5) [4A614538]
Трек 9 точное извлечение (доверие 5) [FA179C4A]
Трек 10 точное извлечение (доверие 5) [AFD4A79B]
Трек 11 точное извлечение (доверие 5) [CAD966FD]

Все треки извлечены точно

Конец отчёта



[CUETools log; Date: 2016. 08. 13. 8:16:28; Version: 2.1.6]
Pregap length 00:00:37.
[AccurateRip ID: 00114e38-00960a6c-ac0a1f0b] found.
Track [ CRC | V2 ] Status
01 [17bd207b|573d7117] (09+13/22) Accurately ripped
02 [8de8a817|47907f47] (09+13/22) Accurately ripped
03 [f40b31a6|82d5f088] (09+13/22) Accurately ripped
04 [9ae688c5|815c8c75] (09+13/22) Accurately ripped
05 [9036ac35|4b22962e] (09+13/22) Accurately ripped
06 [002e680c|133675b6] (09+13/22) Accurately ripped
07 [28c30690|df8b89ec] (09+13/22) Accurately ripped
08 [4a614538|a6651482] (09+13/22) Accurately ripped
09 [fa179c4a|10f2ba6a] (09+13/22) Accurately ripped
10 [afd4a79b|d019ae5e] (09+13/22) Accurately ripped
11 [cad966fd|3a5e6dd0] (09+13/22) Accurately ripped

Track Peak [ CRC32 ] [W/O NULL]
– 96,4 [217B1DB6] [81E7709B]
01 96,0 [23C3415E] [70451778]
02 96,4 [AFDF178F] [F0BD6E1C]
03 95,3 [A1BA4217] [5513E168]
04 94,8 [E4631724] [5B5AEBC1]
05 95,3 [5337B2EB] [23F0C697]
06 94,7 [4F23A537] [D5097BC4]
07 95,7 [00C907EC] [49FD3E8B]
08 96,0 [886FAE71] [9201F406]
09 95,2 [1CA7D8D3] [6E1BD48A]
10 94,7 [59051E20] [853FAD61]
11 95,6 [3BDA98A6] [86769602]



original uploader unknown
Bigfile
Datafile

password: asd