Subcategories

Sundayman - Outerland (2009) (Repost)

Posted By: gribovar
Sundayman - Outerland (2009) (Repost)

Sundayman - Outerland (2009)
EAC Rip | FLAC (image+.cue+log) - 396 MB | MP3 CBR 320 kbps (LAME 3.93) - 141 MB | Covers - 41 MB
Genre: Chillout, Downtempo | RAR 3% Rec. | Label: Kraak Records (KRKCD101)

"Outerland" includes Sundayman's previously released, as well as unreleased songs that were conceived during the past ten years. A special debut album that offers listeners a unique mix of downtempo and chillout songs that come to demonstrate Sundayman's exceptional producing and mixing style, while at the same time, travel one's mind. Twelve exclusive downtempo grooves, spiced with chill out and dance attitude, plus some awesome vocals from three different guest vocalists.
Composer and producer, Kyriakos Moustakas (aka Sundayman) has been involved in music since his childhood. Born in Athens in 1974, Kyriakos showed an early interest in electronic music and quickly became literate in music technology, along with more than ten years of studies in piano and music theory. Soon, Kyriakos sets up Inhousemusic, an independent music label, to start expressing his music energy, and under the nickname “Sundayman”, he participates in numerous compilations released in Greece and USA.
Tracklist:
01. The Land Of Fantasy
02. Iambic Seahorses (Groovy Mix)
03. Now That I Found You (Cutty Sark Song Theme)
04. Negative Time
05. Mediterranee
06. Outerland (Retro Mix)
07. Mille Et Un Paysage
08. Faded Moments
09. Do You Love Me? (The Full Mix)
10. Ancient Times
11. In The Middle Of The Skyway (Fluffy Mix)
12. Abandon

Total time: 59:59

Exact Audio Copy V0.99 prebeta 4 from 23. January 2008

EAC extraction logfile from 10. December 2009, 19:01

Sundayman / Outerland

Used drive : PLEXTOR DVDR PX-760A Adapter: 3 ID: 0

Read mode : Secure
Utilize accurate stream : Yes
Defeat audio cache : Yes
Make use of C2 pointers : No

Read offset correction : 30
Overread into Lead-In and Lead-Out : No
Fill up missing offset samples with silence : Yes
Delete leading and trailing silent blocks : No
Null samples used in CRC calculations : Yes
Used interface : Native Win32 interface for Win NT & 2000

Used output format : User Defined Encoder
Selected bitrate : 1024 kBit/s
Quality : High
Add ID3 tag : No
Command line compressor : C:\Program Files\Exact Audio Copy\Flac\flac.exe
Additional command line options : -V -8 -T "artist=%a" -T "title=%t" -T "album=%g" -T "date=%y" -T "tracknumber=%n" -T "genre=%m" %s


TOC of the extracted CD

Track | Start | Length | Start sector | End sector
––––––––––––––––––––––––––––-
1 | 0:00.00 | 3:57.51 | 0 | 17825
2 | 3:57.51 | 4:55.51 | 17826 | 40001
3 | 8:53.27 | 4:55.22 | 40002 | 62148
4 | 13:48.49 | 5:29.47 | 62149 | 86870
5 | 19:18.21 | 3:56.03 | 86871 | 104573
6 | 23:14.24 | 4:46.66 | 104574 | 126089
7 | 28:01.15 | 5:49.49 | 126090 | 152313
8 | 33:50.64 | 5:33.50 | 152314 | 177338
9 | 39:24.39 | 5:58.37 | 177339 | 204225
10 | 45:23.01 | 7:44.05 | 204226 | 239030
11 | 53:07.06 | 4:06.59 | 239031 | 257539
12 | 57:13.65 | 2:45.01 | 257540 | 269915


Range status and errors

Selected range

Filename H:\Sundayman-Outerland\Sundayman - Outerland.wav

Peak level 99.8 %
Range quality 99.9 %
Test CRC 07C74B76
Copy CRC 07C74B76
Copy OK

No errors occurred


AccurateRip summary

Track 1 accurately ripped (confidence 1) [90BC1B06]
Track 2 accurately ripped (confidence 1) [1B1DA32E]
Track 3 accurately ripped (confidence 1) [13EC7F84]
Track 4 accurately ripped (confidence 1) [F1F76AFF]
Track 5 accurately ripped (confidence 1) [959525C2]
Track 6 accurately ripped (confidence 1) [E03CD144]
Track 7 accurately ripped (confidence 1) [9748CB53]
Track 8 accurately ripped (confidence 1) [CBECBA7D]
Track 9 accurately ripped (confidence 1) [163B2CE0]
Track 10 accurately ripped (confidence 1) [C2845762]
Track 11 accurately ripped (confidence 1) [93C794D6]
Track 12 accurately ripped (confidence 1) [FF4CCFBF]

All tracks accurately ripped

End of status report

[CUETools log; Date: 11.10.2017 12:01:42; Version: 2.1.4]
[CTDB TOCID: D64rpedBK.LdusWi3oZ_vbqwB6Y-] disk not present in database.
[AccurateRip ID: 001a8496-00fac43c-a10e0e0c] found.
Track [ CRC | V2 ] Status
01 [90bc1b06|bc3d076d] (1+0/1) Accurately ripped
02 [1b1da32e|0e347911] (1+0/1) Accurately ripped
03 [13ec7f84|a4492093] (1+0/1) Accurately ripped
04 [f1f76aff|93220ac4] (1+0/1) Accurately ripped
05 [959525c2|7a134240] (1+0/1) Accurately ripped
06 [e03cd144|c57208d6] (1+0/1) Accurately ripped
07 [9748cb53|cf88a129] (1+0/1) Accurately ripped
08 [cbecba7d|c629f14f] (1+0/1) Accurately ripped
09 [163b2ce0|c0d43a11] (1+0/1) Accurately ripped
10 [c2845762|3070c3ac] (1+0/1) Accurately ripped
11 [93c794d6|78b15203] (1+0/1) Accurately ripped
12 [ff4ccfbf|63a2aa85] (1+0/1) Accurately ripped

Track Peak [ CRC32 ] [W/O NULL] [ LOG ]
– 99,8 [07C74B76] [B96963AC] CRC32
01 98,8 [03278EA9] [A84B5D91]
02 99,8 [C2F969AF] [C8C8BEF0]
03 99,8 [B108FEE4] [B7BD4D99]
04 98,8 [28937D5B] [6B2E4630]
05 98,8 [81F3AB1C] [31990717]
06 99,8 [B2581C55] [BF82B0A3]
07 98,9 [95923B50] [FCC3168B]
08 98,9 [9968AC7D] [BF4B0743]
09 98,8 [6ACA8AD1] [D5F00146]
10 88,1 [FCD5F2CD] [03929156]
11 99,8 [F4711319] [D6B70036]
12 98,8 [BD90916F] [7389DC0A]

Thanks to ssval