Subcategories

Sunset In The 12th House - Mozaic (2015)

Posted By: gribovar
Sunset In The 12th House - Mozaic (2015)

Sunset In The 12th House - Mozaic (2015)
EAC Rip | FLAC (image+.cue+log) - 358 MB | MP3 CBR 320 kbps (LAME 3.93) - 133 MB | Covers - 67 MB
Genre: Psychedelic Post-Rock | RAR 3% Rec. | Label: Prophecy Productions (PRO163)

Sunset In The 12th House is a new band founded by Dordeduh masterminds Edmond Karban (aka Hupogrammos) and Sol Faur. Acting mainly as an instrumental band, the quartet, which is completed by Dordeduh drummer Sergio Ponti and bass player Mihai Moldoveanu, performs a unique style that can be best described as a blend of Psychedelic Post Rock and traditional oriental music. The enigmatic band name refers to the astrological array in which the twelfth house is the house of subconsciousness and unconsciousness, of intuition, compassion and spiritual transcendence.

Tracklist:
01. Seven Insignia
02. Arctic Cascades
03. Paraphernalia Of Sublimation
04. Desert's Eschaton
05. Ethereal Consonance
06. Rejuvenation

Total time: 56:38

Exact Audio Copy V1.1 from 23. June 2015

EAC extraction logfile from 3. August 2015, 21:36

Sunset In The 12th House / Mozaic

Used drive : ASUS DRW-24B3ST Adapter: 1 ID: 0

Read mode : Secure
Utilize accurate stream : Yes
Defeat audio cache : Yes
Make use of C2 pointers : No

Read offset correction : 6
Overread into Lead-In and Lead-Out : No
Fill up missing offset samples with silence : Yes
Delete leading and trailing silent blocks : No
Null samples used in CRC calculations : Yes
Used interface : Native Win32 interface for Win NT & 2000

Used output format : User Defined Encoder
Selected bitrate : 768 kBit/s
Quality : High
Add ID3 tag : No
Command line compressor : C:\Program Files (x86)\Exact Audio Copy\FLAC\FLAC.EXE
Additional command line options : -6 -V -T "ARTIST=%artist%" -T "TITLE=%title%" -T "ALBUM=%albumtitle%" -T "DATE=%year%" -T "TRACKNUMBER=%tracknr%" -T "GENRE=%genre%" -T "COMMENT=%comment%" -T "BAND=%albuminterpret%" -T "ALBUMARTIST=%albuminterpret%" -T "COMPOSER=%composer%" %haslyrics%–tag-from-file=LYRICS="%lyricsfile%"%haslyrics% -T "DISCNUMBER=%cdnumber%" -T "TOTALDISCS=%totalcds%" -T "TOTALTRACKS=%numtracks%" %hascover%–picture="%coverfile%"%hascover% %source% -o %dest%


TOC of the extracted CD

Track | Start | Length | Start sector | End sector
––––––––––––––––––––––––––––-
1 | 0:00.00 | 14:43.10 | 0 | 66234
2 | 14:43.10 | 10:56.13 | 66235 | 115447
3 | 25:39.23 | 9:54.69 | 115448 | 160066
4 | 35:34.17 | 8:25.13 | 160067 | 197954
5 | 43:59.30 | 6:49.55 | 197955 | 228684
6 | 50:49.10 | 5:48.65 | 228685 | 254849


Range status and errors

Selected range

Filename D:\Sunset In The 12th House - Mozaic.wav

Peak level 96.6 %
Extraction speed 5.8 X
Range quality 99.9 %
Test CRC D81109E6
Copy CRC D81109E6
Copy OK

No errors occurred


AccurateRip summary

Track 1 not present in database
Track 2 not present in database
Track 3 not present in database
Track 4 not present in database
Track 5 not present in database
Track 6 not present in database

None of the tracks are present in the AccurateRip database

End of status report

–– CUETools DB Plugin V2.1.6

[CTDB TOCID: 8LWBkpSdCAGesvGcWLrajrui65Y-] found
Submit result: 8LWBkpSdCAGesvGcWLrajrui65Y- has been confirmed
Track | CTDB Status
1 | (1/1) Accurately ripped
2 | (1/1) Accurately ripped
3 | (1/1) Accurately ripped
4 | (1/1) Accurately ripped
5 | (1/1) Accurately ripped
6 | (1/1) Accurately ripped


==== Log checksum B44D5001862099005FA16237D2BBA495CAB0AF0A85C4E5A9C7C9009320818791 ====

[CUETools log; Date: 19.09.2017 11:30:36; Version: 2.1.4]
[CTDB TOCID: 8LWBkpSdCAGesvGcWLrajrui65Y-] found.
Track | CTDB Status
1 | (7/8) Accurately ripped
2 | (7/8) Accurately ripped
3 | (7/8) Accurately ripped
4 | (7/8) Accurately ripped
5 | (7/8) Accurately ripped
6 | (8/8) Accurately ripped
[AccurateRip ID: 000f9d08-00505616-440d4606] found.
Track [ CRC | V2 ] Status
01 [73a01f31|bae5fcdd] (0+3/3) Accurately ripped
02 [f37f4463|54193578] (0+3/3) Accurately ripped
03 [995a7a01|a886d9fb] (0+3/3) Accurately ripped
04 [19312e2b|6dd5ad81] (0+3/3) Accurately ripped
05 [60d6db78|b4d0061d] (0+3/3) Accurately ripped
06 [db25aad1|0b554ea3] (0+3/3) Accurately ripped

Track Peak [ CRC32 ] [W/O NULL] [ LOG ]
– 96,6 [D81109E6] [E9AFAABF] CRC32
01 96,6 [DBFA6E8D] [95795A7C]
02 96,2 [D2328FF9] [DBD1A08E]
03 96,4 [17306D26] [440C25F1]
04 96,2 [B383D89A] [0A17C6F4]
05 96,1 [55CD6169] [4A7D2499]
06 96,0 [1EEB1EE5] [9A8B0401]

Thanks to mekong