Subcategories

Superjoint Ritual - Use Once And Destroy (2002) (Japan VICP-61900)

Posted By: apocalipsys2014
Superjoint Ritual - Use Once And Destroy (2002) (Japan VICP-61900)

Superjoint Ritual - Use Once And Destroy (2002)
Year & Label: 2002, Victor Entertainment, Inc., Japan | CD#: VICP-619000
Flac (image) | MP3 CBR 320 Kbps | Artwork (JPG, 600 dpi) | File-hosts: FilePost
Sludge/Southern Metal | FLAC: 460 MB | Artwork: 110 MB | MP3: 140 MB | 5% WinRAR Recovery

EAC Secure-rip with LOG+CUE+COVERS | Source: eMule
Japanese edition with 2 bonus track

The early 21st century saw Pantera singer Phil Anselmo launch several side projects, including Superjoint Ritual. The latter group is comprised of guitarists Jim Bower (ex-Down, Eyehategod) and Kevin Bond (ex-Eyehategod, Floodgate), drummer Joseph Fazzio (ex-Eyehategod), with none other than Hank Williams III on bass . May of 2002 saw the release of the quintet's debut, Use Once and Destroy, an album that reflected such influences as Black Flag, Righteous Pigs, Celtic Frost, and Voivod, among others.

Philip Anselmo has amassed himself legions of die-hard fans due to the immense popularity of the heavy metal band Pantera, and has taken the liberty to extend his vocal skills in many different directions throughout the years. With his work with Down, some fans feared that Anselmo had somehow gone soft and had run out of the hate he once thrived on, yet Superjoint Ritual's long-awaited debut should assure any doubters that the legendary Pantera frontman is still overflowing with enough attitude and anger to energize a small nation. Use Once and Destroy is the audio equivalent to having one's face reduced to pulp by a cement block, never allowing the listener to fully gain their composure with some of the most intense heavy thrash metal to be released in 2002. What comes as an unexpected and somewhat humorous surprise is that Anselmo is accompanied by none other than Hank Williams III on bass duty, yet don't expect anything remotely related to country music here. Superjoint Ritual has a heightened sense of brutality that not even Pantera has quite yet reached, pummeling one's ears with relentless blasts of pure molten metal menace. The album relies on rapid-fire bursts of lightning-quick metal for the most part, as many of the album's 18 tracks are under three minutes in length, yet this works fine, allowing Anselmo to mutilate one's skin with his venomous screams. Anyone who even imagined Philip Anselmo had lost a shred of intensity deserves to be taught a lesson by listening to Use Once and Destroy at the maximum volume possible. This is an outstanding metal release that is exceptionally furious.

~ allmusic.com
Superjoint Ritual At MySpace
Superjoint Ritual At Encyclopaedia Metallum

Musicians:

Vocals, guitar : Phil Anselmo
Guitars : Jimmy Bower
Bass : Michael Haaga
Drums : Joe Fazzio

Produced by Dave Fortman and Superjoint Ritual
Recorded at Balance Recordings Studios, Mandeville, Louisiana
Mastered at Orange Whip Recordings

Track List:

01. Oblivious Maximus [2:34]
02. It Takes No Guts [2:06]
03. Everyone Hates Everyone [3:49]
04. The Introvert [3:47]
05. The Alcoholik [2:31]
06. Fuck Your Enemy [1:41]
07. 4 Songs [6:19]
08. Messages [2:01]
09. All Of Our Lives Will Get Tired [3:21]
10. Antifaith [2:15]
11. Ozena [3:57]
12. Drug Your Love [2:52]
13. Haunted Hated [2:41]
14. Stupid, Stupid Man [2:34]
15. Creepy Crawl [1:55]
16. Superjoint Ritual [6:35]
17. Starvation Trip (Demo, Bonus Track) [1:23]
18. Little H (Demo, Bonus Track) [2:06]

Exact Audio Copy V1.0 beta 3 from 29. August 2011

EAC extraction logfile from 5. January 2013, 13:20

Superjoint Ritual / Use Once And Destroy [Japan, Victor Int. VICP-61900]

Used drive : TSSTcorpCDDVDW TS-L633J Adapter: 0 ID: 1

Read mode : Secure
Utilize accurate stream : Yes
Defeat audio cache : Yes
Make use of C2 pointers : No

Read offset correction : 6
Overread into Lead-In and Lead-Out : No
Fill up missing offset samples with silence : Yes
Delete leading and trailing silent blocks : No
Null samples used in CRC calculations : Yes
Used interface : Native Win32 interface for Win NT & 2000

Used output format : Internal WAV Routines
Sample format : 44.100 Hz; 16 Bit; Stereo


TOC of the extracted CD

Track | Start | Length | Start sector | End sector
––––––––––––––––––––––––––––-
1 | 0:00.00 | 2:34.20 | 0 | 11569
2 | 2:34.20 | 2:06.05 | 11570 | 21024
3 | 4:40.25 | 3:49.05 | 21025 | 38204
4 | 8:29.30 | 3:46.52 | 38205 | 55206
5 | 12:16.07 | 2:30.55 | 55207 | 66511
6 | 14:46.62 | 1:40.53 | 66512 | 74064
7 | 16:27.40 | 6:18.52 | 74065 | 102466
8 | 22:46.17 | 2:01.23 | 102467 | 111564
9 | 24:47.40 | 3:21.00 | 111565 | 126639
10 | 28:08.40 | 2:14.57 | 126640 | 136746
11 | 30:23.22 | 3:57.03 | 136747 | 154524
12 | 34:20.25 | 2:51.65 | 154525 | 167414
13 | 37:12.15 | 2:40.72 | 167415 | 179486
14 | 39:53.12 | 2:33.65 | 179487 | 191026
15 | 42:27.02 | 1:54.70 | 191027 | 199646
16 | 44:21.72 | 6:35.10 | 199647 | 229281
17 | 50:57.07 | 1:23.03 | 229282 | 235509
18 | 52:20.10 | 2:06.27 | 235510 | 244986


Range status and errors

Selected range

Filename D:\spv-av\[2002] [CD] Use Once And Destroy [Japan, Victor Int. VICP-61900]\Superjoint Ritual - Use Once And Destroy [Japan, Victor Int. VICP-61900].wav

Peak level 99.9 %
Extraction speed 2.8 X
Range quality 100.0 %
Test CRC 3AECFD0C
Copy CRC 3AECFD0C
Copy OK

No errors occurred


AccurateRip summary

Track 1 not present in database
Track 2 not present in database
Track 3 not present in database
Track 4 not present in database
Track 5 not present in database
Track 6 not present in database
Track 7 not present in database
Track 8 not present in database
Track 9 not present in database
Track 10 not present in database
Track 11 not present in database
Track 12 not present in database
Track 13 not present in database
Track 14 not present in database
Track 15 not present in database
Track 16 not present in database
Track 17 not present in database
Track 18 not present in database

None of the tracks are present in the AccurateRip database

End of status report

Not my rip, not my scan-job. Thx very much to the original uploader spv-av [MMT]!
5% WinRar Recovery Record for all files.
Try before you might buy. Support the artists you like and buy their stuff whenever you can afford it.
FLAC, image + artwork or mp3 at FilePost.com:
FLAC | Mp3 320 kbps | Artwork