Subcategories

Supermax - Best Of (30th Anniversary Edition) (2008) [2CD + DVD]

Posted By: v3122
Supermax - Best Of (30th Anniversary Edition) (2008) [2CD + DVD]

Supermax - Best Of (30th Anniversary Edition) (2008)
EAC | Flac(Image) + Cue + Log & MP3 CBR 320Kbps
2CD | Universal Music, 1768285 | ~ 1020 or 366 Mb | Scans(jpg) -> 9 Mb
DVD5: PAL 4:3 (720x576) VBR | Dolby AC3, 2 ch, 224 kbps -> 4.07 Gb
Reggae, Pop, Europop

Supermax was a project of Austrian musician and producer, Kurt Hauenstein (1949–2011), best known for "Lovemachine", a 1977 German #4 single, that peaked at #6 in Switzerland, #9 in Austria and #96 in US.

The first members of the band were Kurt Hauenstein (Mini Moog, vocals), Hans Ochs (guitar), Ken Taylor (bass guitar), Lothar Krell (keyboards), Peter Koch (percussion), Jürgen Zöller (drums) and the singers Cee Cee Cobb and Jean Graham. After Ken Taylor left the band in 1979, Kurt Hauenstein returned back to his origin music instrument, the bass guitar. Later, Bernadet Onore Eben and Jessica Hauenstein, the daughter of Kurt Hauenstein, joined the group as backing vocal singers.

In 1981, Supermax toured as the first mixed-race band through South Africa for 21 gigs. Despite warnings and death threats, Supermax finished the tour, but this made some countries refuse permits for entry, and consequently the group was black-listed by some political organizations.

In 1983, Supermax was invited to play as special guest from Europe at the Reggae Sunsplash Festival in Montego Bay, Jamaica…

~ wiki
Supermax - Best Of (30th Anniversary Edition) (2008):

Supermax - Best Of (30th Anniversary Edition) (2008) [2CD + DVD]

Tracklist CD1:

01. Don't StopTthe Music [0:03:48.50]
02. World Of Today [0:04:23.11]
03. Lovemachine [0:07:41.65]
04. Camillo [0:04:02.37]
05. It Ain't Easy [0:04:24.58]
06. Love Is Deeper [0:03:51.41]
07. African Blood [0:04:28.13]
08. Electricity [0:03:52.40]
09. Just Before The Nightmare [0:04:35.68]
10. Shine On Me [0:03:53.55]
11. Reggaesizer [0:05:06.62]
12. Scream Of A Butterfly [0:04:42.32]
13. Living In A World [0:05:46.15]
14. Vision [0:05:30.71]
15. Tears [0:05:39.65]
16. Voodoo Asses [0:04:48.11]
17. And Time Will Come [0:05:42.51]

Exact Audio Copy V0.99 prebeta 4 from 23. January 2008

EAC extraction logfile from 24. May 2008, 14:13

Supermax / Best Of 30th anniversary edition - CD1

Used drive : TSSTcorpCDDVDW SH-S203B Adapter: 6 ID: 0

Read mode : Secure
Utilize accurate stream : Yes
Defeat audio cache : Yes
Make use of C2 pointers : No

Read offset correction : 6
Overread into Lead-In and Lead-Out : No
Fill up missing offset samples with silence : Yes
Delete leading and trailing silent blocks : No
Null samples used in CRC calculations : Yes
Used interface : Installed external ASPI interface

Used output format : Monkey's Audio Lossless Encoder
Selected bitrate : Fast Lossless Compression
Quality : High
Add ID3 tag : No
Command line compressor : C:\Program Files\Monkey's Audio\MAC.exe


TOC of the extracted CD

Track | Start | Length | Start sector | End sector
––––––––––––––––––––––––––––-
1 | 0:00.00 | 3:48.50 | 0 | 17149
2 | 3:48.50 | 4:23.11 | 17150 | 36885
3 | 8:11.61 | 7:41.65 | 36886 | 71525
4 | 15:53.51 | 4:02.37 | 71526 | 89712
5 | 19:56.13 | 4:24.58 | 89713 | 109570
6 | 24:20.71 | 3:51.41 | 109571 | 126936
7 | 28:12.37 | 4:28.13 | 126937 | 147049
8 | 32:40.50 | 3:52.40 | 147050 | 164489
9 | 36:33.15 | 4:35.68 | 164490 | 185182
10 | 41:09.08 | 3:53.55 | 185183 | 202712
11 | 45:02.63 | 5:06.62 | 202713 | 225724
12 | 50:09.50 | 4:42.32 | 225725 | 246906
13 | 54:52.07 | 5:46.15 | 246907 | 272871
14 | 60:38.22 | 5:30.71 | 272872 | 297692
15 | 66:09.18 | 5:39.65 | 297693 | 323182
16 | 71:49.08 | 4:48.11 | 323183 | 344793
17 | 76:37.19 | 5:42.51 | 344794 | 370494


Range status and errors

Selected range

Filename C:\uTorrent\CD\Supermax - Best Of 30th anniversary edition\Supermax - Best Of 30th anniversary edition - CD1\Supermax - Best Of 30th anniversary edition - CD1.wav

Peak level 100.0 %
Range quality 100.0 %
Copy CRC 2DB92B06
Copy OK

No errors occurred


AccurateRip summary

Track 1 not present in database
Track 2 not present in database
Track 3 not present in database
Track 4 not present in database
Track 5 not present in database
Track 6 not present in database
Track 7 not present in database
Track 8 not present in database
Track 9 not present in database
Track 10 not present in database
Track 11 not present in database
Track 12 not present in database
Track 13 not present in database
Track 14 not present in database
Track 15 not present in database
Track 16 not present in database
Track 17 not present in database

None of the tracks are present in the AccurateRip database

End of status report

foobar2000 1.2.9 / Dynamic Range Meter 1.1.1
log date: 2017-06-07 14:19:58

––––––––––––––––––––––––––––––––––––––––
Analyzed: Supermax / Best Of 30th anniversary edition - CD1
––––––––––––––––––––––––––––––––––––––––

DR Peak RMS Duration Track
––––––––––––––––––––––––––––––––––––––––
DR7 -0.10 dB -8.89 dB 3:49 01-Don't StopTthe Music
DR6 -0.10 dB -7.64 dB 4:23 02-World Of Today
DR6 -0.10 dB -7.77 dB 7:42 03-Lovemachine
DR7 -0.10 dB -8.39 dB 4:02 04-Camillo
DR7 -0.26 dB -9.81 dB 4:25 05-It Ain't Easy
DR7 -0.10 dB -10.17 dB 3:52 06-Love Is Deeper
DR7 -0.10 dB -8.38 dB 4:28 07-African Blood
DR8 -0.10 dB -9.26 dB 3:53 08-Electricity
DR8 0.00 dB -8.95 dB 4:36 09-Just Before The Nightmare
DR8 0.00 dB -9.46 dB 3:54 10-Shine On Me
DR7 -0.10 dB -9.38 dB 5:07 11-Reggaesizer
DR7 -0.46 dB -10.45 dB 4:42 12-Scream Of A Butterfly
DR5 -0.11 dB -7.11 dB 5:46 13-Living In A World
DR6 -0.10 dB -8.61 dB 5:31 14-Vision
DR7 0.00 dB -9.25 dB 5:40 15-Tears
DR7 0.00 dB -9.24 dB 4:48 16-Voodoo Asses
DR7 0.00 dB -9.20 dB 5:43 17-And Time Will Come
––––––––––––––––––––––––––––––––––––––––

Number of tracks: 17
Official DR value: DR7

Samplerate: 44100 Hz
Channels: 2
Bits per sample: 16
Bitrate: 936 kbps
Codec: FLAC

[CUETools log; Date: 07.06.2017 14:19:40; Version: 2.1.4]
[CTDB TOCID: UlHpsAOjBbf2cTn6L6PTO4QHgto-] found.
Track | CTDB Status
1 | (23/25) Accurately ripped
2 | (23/25) Accurately ripped
3 | (23/25) Accurately ripped
4 | (23/25) Accurately ripped
5 | (23/25) Accurately ripped
6 | (23/25) Accurately ripped
7 | (23/25) Accurately ripped
8 | (23/25) Accurately ripped
9 | (23/25) Accurately ripped
10 | (24/25) Accurately ripped
11 | (23/25) Accurately ripped
12 | (23/25) Accurately ripped
13 | (23/25) Accurately ripped
14 | (23/25) Accurately ripped
15 | (23/25) Accurately ripped
16 | (23/25) Accurately ripped
17 | (23/25) Accurately ripped
[AccurateRip ID: 00315478-0272abd6-f8134b11] found.
Track [ CRC | V2 ] Status
01 [7bc5a59b|5b4b4886] (06+16/22) Accurately ripped
02 [77a34680|69e3fb46] (06+16/22) Accurately ripped
03 [7a921f66|055fc48e] (07+16/23) Accurately ripped
04 [051a4e59|c6c138cf] (07+16/23) Accurately ripped
05 [ca36b1ed|0be19a9a] (07+16/23) Accurately ripped
06 [0199077c|737dc3a0] (06+16/22) Accurately ripped
07 [97e8a6d0|d9af31e2] (07+16/23) Accurately ripped
08 [4c4ab46e|5a04712d] (07+16/23) Accurately ripped
09 [c4a4cdfa|a9436fae] (07+16/23) Accurately ripped
10 [6588f04b|8c507413] (07+16/23) Accurately ripped
11 [8ed9e5a7|8190bdc3] (07+16/23) Accurately ripped
12 [60163f97|73d28e8e] (07+15/22) Accurately ripped
13 [6c5275ec|ee075d3c] (07+15/22) Accurately ripped
14 [867e0e60|ff2a0054] (07+15/22) Accurately ripped
15 [32905da3|95dd5b61] (07+14/21) Accurately ripped
16 [a6fa3420|bf922655] (07+15/22) Accurately ripped
17 [1b8b1ca9|8db7f426] (07+15/22) Accurately ripped

Track Peak [ CRC32 ] [W/O NULL] [ LOG ]
– 100,0 [2DB92B06] [742004AA] CRC32
01 98,8 [1B83D7F4] [D9EE8518]
02 98,8 [7B2215FA] [7D2C4FC5]
03 98,8 [152064AD] [5ED848E2]
04 98,8 [E65AA2F7] [0AE63107]
05 97,0 [599F7722] [7A9A5931]
06 98,8 [03A7BEF2] [2CBA6C9E]
07 98,8 [353BB98F] [905BA1AB]
08 98,8 [E0598881] [47D75F40]
09 100,0 [A778D9BC] [5A017E64]
10 100,0 [F4E2FDD0] [BA305D23]
11 98,8 [4A58B0C3] [B606C224]
12 94,8 [2D0101FF] [D204ACF8]
13 98,7 [102240EC] [2235DC4E]
14 98,8 [950F2218] [C46F8B4C]
15 100,0 [407F63AD] [F0BCBCE9]
16 100,0 [75E2702A] [0CBECD99]
17 100,0 [FE8B42CB] [92949093]

Supermax - Best Of (30th Anniversary Edition) (2008) [2CD + DVD]

Tracklist CD2 - Remixes:

01. Camillo (remaxed by Stefan Obermaier) [0:05:39.19]
02. World Of Today (Honolulu-Spooky-Mix) [0:06:36.40]
03. It Ain'i Easy (remaxed by Moonbootika) [0:07:29.02]
04. Vision (remaxed by SpinDoc) [0:05:42.50]
05. African Blood (remaxed by Smoove) [0:07:50.55]
06. Electricity (remaxed by SuperSultan & MikeBurns) [0:06:32.66]
07. World Of Today (remaxed by Supermax) [0:03:45.11]
08. World Of Today (remaxed by Supermax & Taliesin) [0:04:28.26]
09. Lovemachine (Golden Flash Remix) [0:05:41.68]
10. Lovemachine (Dub Edit - remaxed by Supermax) [0:09:13.23]
11. Lovemachine (SoPhat! vs. Mousse T. Club Edit) [0:06:16.58]
12. Lovemachine (Goldfingers NRG Edit) [0:03:36.34]

Exact Audio Copy V0.99 prebeta 4 from 23. January 2008

EAC extraction logfile from 24. May 2008, 15:51

Supermax / Best Of - 30th anniversary edition - CD2 (Remixes)

Used drive : TSSTcorpCDDVDW SH-S203B Adapter: 6 ID: 0

Read mode : Secure
Utilize accurate stream : Yes
Defeat audio cache : Yes
Make use of C2 pointers : No

Read offset correction : 6
Overread into Lead-In and Lead-Out : No
Fill up missing offset samples with silence : Yes
Delete leading and trailing silent blocks : No
Null samples used in CRC calculations : Yes
Used interface : Installed external ASPI interface

Used output format : Monkey's Audio Lossless Encoder
Selected bitrate : Fast Lossless Compression
Quality : High
Add ID3 tag : No
Command line compressor : C:\Program Files\Monkey's Audio\MAC.exe


TOC of the extracted CD

Track | Start | Length | Start sector | End sector
––––––––––––––––––––––––––––-
1 | 0:00.00 | 5:39.19 | 0 | 25443
2 | 5:39.19 | 6:36.40 | 25444 | 55183
3 | 12:15.59 | 7:29.02 | 55184 | 88860
4 | 19:44.61 | 5:42.50 | 88861 | 114560
5 | 25:27.36 | 7:50.55 | 114561 | 149865
6 | 33:18.16 | 6:32.66 | 149866 | 179331
7 | 39:51.07 | 3:45.11 | 179332 | 196217
8 | 43:36.18 | 4:28.26 | 196218 | 216343
9 | 48:04.44 | 5:41.68 | 216344 | 241986
10 | 53:46.37 | 9:13.23 | 241987 | 283484
11 | 62:59.60 | 6:16.58 | 283485 | 311742
12 | 69:16.43 | 3:36.34 | 311743 | 327976


Range status and errors

Selected range

Filename C:\uTorrent\CD\Supermax - Best Of 30th anniversary edition\Supermax - Best Of - 30th anniversary edition - CD2 (Remixes)\Supermax - Best Of - 30th anniversary edition - CD2 (Remixes).wav

Peak level 98.8 %
Range quality 100.0 %
Copy CRC C3490FDC
Copy OK

No errors occurred


AccurateRip summary

Track 1 not present in database
Track 2 not present in database
Track 3 not present in database
Track 4 not present in database
Track 5 not present in database
Track 6 not present in database
Track 7 not present in database
Track 8 not present in database
Track 9 not present in database
Track 10 not present in database
Track 11 not present in database
Track 12 not present in database

None of the tracks are present in the AccurateRip database

End of status report

foobar2000 1.2.9 / Dynamic Range Meter 1.1.1
log date: 2017-06-07 14:20:22

––––––––––––––––––––––––––––––––––––––––
Analyzed: Supermax / Best Of - 30th anniversary edition - CD2 (Remixes)
––––––––––––––––––––––––––––––––––––––––

DR Peak RMS Duration Track
––––––––––––––––––––––––––––––––––––––––
DR6 -0.28 dB -8.69 dB 5:39 01-Camillo (remaxed by Stefan Obermaier)
DR7 -0.30 dB -9.07 dB 6:37 02-World Of Today (Honolulu-Spooky-Mix)
DR6 -0.30 dB -8.31 dB 7:29 03-It Ain'i Easy (remaxed by Moonbootika)
DR7 -0.30 dB -8.84 dB 5:43 04-Vision (remaxed by SpinDoc)
DR8 -0.20 dB -10.30 dB 7:51 05-African Blood (remaxed by Smoove)
DR6 -0.20 dB -7.68 dB 6:33 06-Electricity (remaxed by SuperSultan & MikeBurns)
DR6 -0.10 dB -7.28 dB 3:45 07-World Of Today (remaxed by Supermax)
DR5 -0.20 dB -6.50 dB 4:28 08-World Of Today (remaxed by Supermax & Taliesin)
DR6 -0.10 dB -7.76 dB 5:42 09-Lovemachine (Golden Flash Remix)
DR6 -0.10 dB -6.85 dB 9:13 10-Lovemachine (Dub Edit - remaxed by Supermax)
DR7 -0.10 dB -9.29 dB 6:17 11-Lovemachine (SoPhat! vs. Mousse T. Club Edit)
DR7 -0.10 dB -9.43 dB 3:36 12-Lovemachine (Goldfingers NRG Edit)
––––––––––––––––––––––––––––––––––––––––

Number of tracks: 12
Official DR value: DR6

Samplerate: 44100 Hz
Channels: 2
Bits per sample: 16
Bitrate: 842 kbps
Codec: FLAC

[CUETools log; Date: 07.06.2017 14:20:03; Version: 2.1.4]
[CTDB TOCID: g5HKBGhMofoDcGbjKb0TSeBRfZs-] found.
Track | CTDB Status
1 | (39/40) Accurately ripped
2 | (39/40) Accurately ripped
3 | (39/40) Accurately ripped
4 | (39/40) Accurately ripped
5 | (39/40) Accurately ripped
6 | (39/40) Accurately ripped
7 | (39/40) Accurately ripped
8 | (40/40) Accurately ripped
9 | (40/40) Accurately ripped
10 | (39/40) Accurately ripped
11 | (39/40) Accurately ripped
12 | (39/40) Accurately ripped
[AccurateRip ID: 00216e9a-0136a6d8-ac11150c] found.
Track [ CRC | V2 ] Status
01 [4d14d4b3|7c355c73] (06+19/25) Accurately ripped
02 [a3bfcb74|52cb79d6] (06+19/25) Accurately ripped
03 [408b60f8|ffb3fd12] (06+19/25) Accurately ripped
04 [9f8ca33f|a9abe7e9] (06+19/25) Accurately ripped
05 [d9ba3474|adfa1938] (06+19/25) Accurately ripped
06 [6629b67e|b1cbfe16] (06+19/25) Accurately ripped
07 [25716341|07c941f4] (06+19/25) Accurately ripped
08 [417c2a1c|03f13a2b] (06+19/25) Accurately ripped
09 [aa984aea|750b6ce9] (06+19/25) Accurately ripped
10 [bbf5f7ec|096fb4ac] (06+19/25) Accurately ripped
11 [373cc76d|3443e8ee] (06+18/24) Accurately ripped
12 [87476c04|7632d501] (06+18/24) Accurately ripped

Track Peak [ CRC32 ] [W/O NULL] [ LOG ]
– 98,8 [C3490FDC] [22091F34] CRC32
01 96,8 [A4F022DA] [EC2302C0]
02 96,6 [F8B4C4E2] [AE41FD67]
03 96,6 [3571F14E] [DDA76A2B]
04 96,6 [E3907701] [E15BC41D]
05 97,7 [DF4F094B] [59FC94A6]
06 97,7 [60AD0C76] [B4D2A48E]
07 98,8 [948483BB] [BCB7B573]
08 97,7 [8A4ED9FA] [2B7BD896]
09 98,8 [F3DFBEBF] [78D82D89]
10 98,8 [E27CE76A] [7B1FC634]
11 98,8 [68382CB6] [3C57F4B3]
12 98,8 [E193B1B9] [E28B8E2E]

Supermax - Best Of (30th Anniversary Edition) (2008) [2CD + DVD]

Tracklist DVD:

01. Introduction
02. Supermax
03. Be What You Are
04. World of Today
05. Love Machine
06. It Ain't Easy
07. I Am What I Am
08. Watch Out South Africa
09. Aja Jah Jah
10. Reggaesize
11. Number One in My Heart
12. World of Today
13. Interview
14. I Want You
15. Living in a World
16. Scream of a Mutterfly
17. Just Before the Nightmare
18. Nightgroove
19. I Want You
20. Love Machine
21. World of Tomorrow
22. Rehar
23. Kick It
24. Bango Bongo
25. Vision
26. Werbung
27. Shine On Me
28. End Credits
- Just before the nightmare (bonus)
- Also includes: biography, discography

Title: Supermax 2008 - Best Of - DVD
Size: 3.85 Gb ( 4 039 870,00 KBytes ) - DVD-5
Enabled regions: 1, 2, 3, 4, 5, 6, 7, 8

VTS_01 :
Play Length: 00:00:10
Video: PAL 4:3 (720x576) VBR
Audio:
Deutsch (Dolby AC3, 2 ch)

VTS_02 :
Play Length: 00:05:41
Video: PAL 4:3 (720x576) VBR
Audio:
Deutsch (Dolby AC3, 2 ch)
Subtitles:
English

VTS_03 :
Play Length: 01:47:26
Video: PAL 4:3 (720x576) VBR
Audio:
Deutsch, AC3, 2/0 (L,R) ch, 224 kbps, Delay 0 mSec



Supermax - Best Of (30th Anniversary Edition) (2008) [2CD + DVD]

Supermax - Best Of (30th Anniversary Edition) (2008) [2CD + DVD]

Supermax - Best Of (30th Anniversary Edition) (2008) [2CD + DVD]

Supermax - Best Of (30th Anniversary Edition) (2008) [2CD + DVD]

Supermax - Best Of (30th Anniversary Edition) (2008) [2CD + DVD]

All thanks go to bazar

Supermax in my Blog

Download Supermax - Best Of (30th Anniversary Edition) (2008):