Subcategories

Supermax - One And All (1993)

Posted By: v3122
Supermax - One And All (1993)

Supermax - One And All (1993)
EAC | Flac(Image) + Cue + Log & MP3 CBR 320Kbps
KOCH 34104-2 H1 | ~ 279 or 105 Mb | Scans(png) -> 223 Mb
Reggae, Funk, Disco

Supermax was a project of Austrian musician and producer, Kurt Hauenstein (1949–2011), best known for "Lovemachine", a 1977 German #4 single, that peaked at #6 in Switzerland, #9 in Austria and #96 in US.

The first members of the band were Kurt Hauenstein (Mini Moog, vocals), Hans Ochs (guitar), Ken Taylor (bass guitar), Lothar Krell (keyboards), Peter Koch (percussion), Jürgen Zöller (drums) and the singers Cee Cee Cobb and Jean Graham. After Ken Taylor left the band in 1979, Kurt Hauenstein returned back to his origin music instrument, the bass guitar. Later, Bernadet Onore Eben and Jessica Hauenstein, the daughter of Kurt Hauenstein, joined the group as backing vocal singers.

In 1981, Supermax toured as the first mixed-race band through South Africa for 21 gigs. Despite warnings and death threats, Supermax finished the tour, but this made some countries refuse permits for entry, and consequently the group was black-listed by some political organizations.

In 1983, Supermax was invited to play as special guest from Europe at the Reggae Sunsplash Festival in Montego Bay, Jamaica…

~ wiki
Supermax - One And All (1993):

Supermax - One And All (1993)

Tracklist:

01. So I 04:20
02. Honkey Curt 05:31
03. Smoke Is Up 03:26
04. Reggaesizer 05:08
05. U The One 04:02
06. One And All 04:06
07. Warriors 04:26
08. Good Times 04:45
09. Shine On Me 03:55
10. Dubbrass 04:55

Musicians:

Kurt Hauenstein – Bass, Keyboards, Vocals, Percussion
Bernhard Lacker, Gerhard Warnung, Rudi Biber – Guitars
Cynthia Sarraga, Dorretta Carter, Freda E. Goodlett, Jacqueline Patricio, Karin Friedl, Nadine Holloway, Sonja Nebenführ, Victoria Miles - Backing Vocals


Converted to Image (CUETools 2.1.4)

Exact Audio Copy V1.0 beta 3 from 29. August 2011

EAC extraction logfile from 16. March 2017, 15:21

Supermax / One And All (34104-2 H1)

Used drive : SONY CD-RW CRX210E1 Adapter: 0 ID: 0

Read mode : Secure
Utilize accurate stream : Yes
Defeat audio cache : Yes
Make use of C2 pointers : No

Read offset correction : 6
Overread into Lead-In and Lead-Out : No
Fill up missing offset samples with silence : Yes
Delete leading and trailing silent blocks : No
Null samples used in CRC calculations : Yes
Used interface : Native Win32 interface for Win NT & 2000
Gap handling : Appended to previous track

Used output format : User Defined Encoder
Selected bitrate : 768 kBit/s
Quality : High
Add ID3 tag : No
Command line compressor : C:\Program Files\FLAC Frontend\tools\flac.exe
Additional command line options : -V -8 -T "Genre=%genre%" -T "Artist=%artist%" -T "Title=%title%" -T "Album=%albumtitle%" -T "Date=%year%" -T "Tracknumber=%tracknr%" -T "Comment=%comment%" %source%


TOC of the extracted CD

Track | Start | Length | Start sector | End sector
––––––––––––––––––––––––––––-
1 | 0:00.00 | 4:20.40 | 0 | 19539
2 | 4:20.40 | 5:31.08 | 19540 | 44372
3 | 9:51.48 | 3:26.30 | 44373 | 59852
4 | 13:18.03 | 5:08.72 | 59853 | 83024
5 | 18:27.00 | 4:02.15 | 83025 | 101189
6 | 22:29.15 | 4:06.20 | 101190 | 119659
7 | 26:35.35 | 4:26.03 | 119660 | 139612
8 | 31:01.38 | 4:45.42 | 139613 | 161029
9 | 35:47.05 | 3:55.18 | 161030 | 178672
10 | 39:42.23 | 4:55.07 | 178673 | 200804


Track 1

Filename D:\Share\Supermax - 1993 - One And All (KOCH 34104-2 H1 Austria)\01 - So I.wav

Pre-gap length 0:00:02.00

Peak level 93.3 %
Extraction speed 10.4 X
Track quality 100.0 %
Test CRC 83618566
Copy CRC 83618566
Accurately ripped (confidence 10) [52A72656] (AR v2)
Copy OK

Track 2

Filename D:\Share\Supermax - 1993 - One And All (KOCH 34104-2 H1 Austria)\02 - Honkey Curt.wav

Pre-gap length 0:00:02.45

Peak level 93.3 %
Extraction speed 11.3 X
Track quality 100.0 %
Test CRC 88F6F725
Copy CRC 88F6F725
Accurately ripped (confidence 10) [5155EDF1] (AR v2)
Copy OK

Track 3

Filename D:\Share\Supermax - 1993 - One And All (KOCH 34104-2 H1 Austria)\03 - Smoke Is Up.wav

Pre-gap length 0:00:02.55

Peak level 93.3 %
Extraction speed 12.0 X
Track quality 100.0 %
Test CRC 0DAD62D7
Copy CRC 0DAD62D7
Accurately ripped (confidence 10) [49417C19] (AR v2)
Copy OK

Track 4

Filename D:\Share\Supermax - 1993 - One And All (KOCH 34104-2 H1 Austria)\04 - Reggaesizer.wav

Pre-gap length 0:00:02.30

Peak level 93.3 %
Extraction speed 13.0 X
Track quality 100.0 %
Test CRC 436FBD3D
Copy CRC 436FBD3D
Accurately ripped (confidence 10) [1CAF08BD] (AR v2)
Copy OK

Track 5

Filename D:\Share\Supermax - 1993 - One And All (KOCH 34104-2 H1 Austria)\05 - U The One.wav

Pre-gap length 0:00:02.47

Peak level 93.3 %
Extraction speed 13.1 X
Track quality 100.0 %
Test CRC 050C7B1F
Copy CRC 050C7B1F
Accurately ripped (confidence 9) [8011C681] (AR v2)
Copy OK

Track 6

Filename D:\Share\Supermax - 1993 - One And All (KOCH 34104-2 H1 Austria)\06 - One And All.wav

Pre-gap length 0:00:02.35

Peak level 93.3 %
Extraction speed 13.3 X
Track quality 100.0 %
Test CRC 0826BF88
Copy CRC 0826BF88
Accurately ripped (confidence 10) [713F574F] (AR v2)
Copy OK

Track 7

Filename D:\Share\Supermax - 1993 - One And All (KOCH 34104-2 H1 Austria)\07 - Warriors.wav

Pre-gap length 0:00:02.52

Peak level 93.3 %
Extraction speed 13.6 X
Track quality 100.0 %
Test CRC 2BD609AF
Copy CRC 2BD609AF
Accurately ripped (confidence 10) [523A413D] (AR v2)
Copy OK

Track 8

Filename D:\Share\Supermax - 1993 - One And All (KOCH 34104-2 H1 Austria)\08 - Good Times.wav

Pre-gap length 0:00:02.53

Peak level 93.2 %
Extraction speed 14.8 X
Track quality 100.0 %
Test CRC 1F06B543
Copy CRC 1F06B543
Accurately ripped (confidence 10) [18358601] (AR v2)
Copy OK

Track 9

Filename D:\Share\Supermax - 1993 - One And All (KOCH 34104-2 H1 Austria)\09 - Shine On Me.wav

Pre-gap length 0:00:02.27

Peak level 93.3 %
Extraction speed 13.9 X
Track quality 100.0 %
Test CRC FE70EB4A
Copy CRC FE70EB4A
Accurately ripped (confidence 10) [14BC8D81] (AR v2)
Copy OK

Track 10

Filename D:\Share\Supermax - 1993 - One And All (KOCH 34104-2 H1 Austria)\10 - Dubbrass.wav

Pre-gap length 0:00:02.50

Peak level 93.3 %
Extraction speed 13.4 X
Track quality 100.0 %
Test CRC CE0CDCF0
Copy CRC CE0CDCF0
Accurately ripped (confidence 9) [6B78DCCC] (AR v2)
Copy OK


All tracks accurately ripped

No errors occurred

End of status report

–– CUETools DB Plugin V2.1.3

[CTDB TOCID: jIa9nL4Es59VE_CRkULJJMRj.V8-] found, Submit result: jIa9nL4Es59VE_CRkULJJMRj.V8- has been confirmed
[3f98ec49] (14/15) Accurately ripped
[0606e06f] (01/15) No match


==== Log checksum 3A3864D75A4D0B805C1338464A1043492E6091B6F8E49C4CDF0ED75A2615BA34 ====

foobar2000 1.2.9 / Dynamic Range Meter 1.1.1
log date: 2017-03-29 12:19:30

––––––––––––––––––––––––––––––––––––––––
Analyzed: Supermax / One And All (34104-2 H1)
––––––––––––––––––––––––––––––––––––––––

DR Peak RMS Duration Track
––––––––––––––––––––––––––––––––––––––––
DR15 -0.60 dB -17.29 dB 4:21 01-So I
DR12 -0.60 dB -14.98 dB 5:31 02-Honkey Curt
DR11 -0.60 dB -13.14 dB 3:26 03-Smoke Is Up
DR14 -0.60 dB -17.59 dB 5:09 04-Reggaesizer
DR13 -0.60 dB -15.94 dB 4:02 05-U The One
DR13 -0.60 dB -14.80 dB 4:06 06-One And All
DR13 -0.60 dB -15.23 dB 4:26 07-Warriors
DR14 -0.61 dB -17.69 dB 4:46 08-Good Times
DR12 -0.60 dB -14.52 dB 3:55 09-Shine On Me
DR12 -0.60 dB -14.70 dB 4:55 10-Dubbrass
––––––––––––––––––––––––––––––––––––––––

Number of tracks: 10
Official DR value: DR13

Samplerate: 44100 Hz
Channels: 2
Bits per sample: 16
Bitrate: 851 kbps
Codec: FLAC

[CUETools log; Date: 29.03.2017 12:19:38; Version: 2.1.4]
[CTDB TOCID: jIa9nL4Es59VE_CRkULJJMRj.V8-] found.
Track | CTDB Status
1 | (15/16) Accurately ripped
2 | (16/16) Accurately ripped
3 | (15/16) Accurately ripped
4 | (16/16) Accurately ripped
5 | (15/16) Accurately ripped
6 | (15/16) Accurately ripped
7 | (15/16) Accurately ripped
8 | (15/16) Accurately ripped
9 | (15/16) Accurately ripped
10 | (15/16) Accurately ripped
[AccurateRip ID: 0010e732-0086c8e8-830a750a] found.
Track [ CRC | V2 ] Status
01 [48604eed|52a72656] (04+10/14) Accurately ripped
02 [66995c99|5155edf1] (04+10/14) Accurately ripped
03 [937b648a|49417c19] (04+10/14) Accurately ripped
04 [a52df780|1caf08bd] (04+10/14) Accurately ripped
05 [05828d65|8011c681] (04+09/13) Accurately ripped
06 [427b29ba|713f574f] (04+10/14) Accurately ripped
07 [d18c958c|523a413d] (04+10/14) Accurately ripped
08 [06091872|18358601] (04+10/14) Accurately ripped
09 [a63be91f|14bc8d81] (04+10/14) Accurately ripped
10 [013f04c5|6b78dccc] (04+09/13) Accurately ripped

Track Peak [ CRC32 ] [W/O NULL] [ LOG ]
– 93,3 [78D21708] [25BD8756]
01 93,3 [83618566] [265B7696] CRC32
02 93,3 [88F6F725] [E7624760] CRC32
03 93,3 [0DAD62D7] [20D360F8] CRC32
04 93,3 [436FBD3D] [6ADDC42B] CRC32
05 93,3 [050C7B1F] [C550F304] CRC32
06 93,3 [0826BF88] [A3F99B9B] CRC32
07 93,3 [2BD609AF] [BA69AF6C] CRC32
08 93,2 [1F06B543] [470AE4F2] CRC32
09 93,3 [FE70EB4A] [8F8B25B0] CRC32
10 93,3 [CE0CDCF0] [43EE0BEE] CRC32

Supermax - One And All (1993)

All thanks go to Ready.zp

Supermax in my Blog

Download Supermax - One And All (1993):