Subcategories

Supersister - Pudding En Gisteren (1972) [Reissue 2008] (Repost)

Posted By: gribovar
Supersister - Pudding En Gisteren (1972) [Reissue 2008] (Repost)

Supersister - Pudding En Gisteren (1972) [Reissue 2008]
EAC Rip | FLAC (image+.cue+log) - 314 MB | MP3 CBR 320 kbps (LAME 3.93) - 153 MB | Covers included
Genre: Progressive Rock/Canterbury Scene | RAR 3% Rec. | Label: Esoteric Recordings (ECLEC 2059), Remastered

Eccentric, accomplished and unique, Supersister's albums are a joy to any fan of original music. Esoteric recordings are pleased to reissue their classic third album with additional bonus tracks comprising single cuts from 1972 and fully restored artwork.
Tracklist:
01. Radio
02. Supersisterretsisrepus
03. Psychopath
04. Judy Goes On Holiday
05. Pudding En Gisteren - Music For Ballet
06. Dead Dog (Single B-Side, Bonus track)
07. Wow (Live Version, Bonus track)

Total time: 57:44

Exact Audio Copy V0.99 prebeta 4 from 23. January 2008

EAC extraction logfile from 22. March 2009, 13:04

Supersister / Pudding En Gisteren

Used drive : LITE-ON DVDRW LH-20A1P Adapter: 0 ID: 2

Read mode : Secure
Utilize accurate stream : Yes
Defeat audio cache : Yes
Make use of C2 pointers : No

Read offset correction : 6
Overread into Lead-In and Lead-Out : No
Fill up missing offset samples with silence : Yes
Delete leading and trailing silent blocks : No
Null samples used in CRC calculations : Yes
Used interface : Installed external ASPI interface

Used output format : Internal WAV Routines
Sample format : 44.100 Hz; 16 Bit; Stereo


TOC of the extracted CD

Track | Start | Length | Start sector | End sector
––––––––––––––––––––––––––––-
1 | 0:00.00 | 4:01.25 | 0 | 18099
2 | 4:01.25 | 0:18.17 | 18100 | 19466
3 | 4:19.42 | 3:59.67 | 19467 | 37458
4 | 8:19.34 | 12:39.65 | 37459 | 94448
5 | 20:59.24 | 21:01.68 | 94449 | 189091
6 | 42:01.17 | 2:43.32 | 189092 | 201348
7 | 44:44.49 | 12:59.09 | 201349 | 259782


Range status and errors

Selected range

Filename D:\flogger77\Supersister - Pudding En Gisteren.wav

Peak level 99.4 %
Range quality 99.9 %
Copy CRC 64627605
Copy OK

No errors occurred

End of status report

[CUETools log; Date: 01.02.2013 3:51:49; Version: 2.0.9]
[CTDB TOCID: 5947_5WCHLi39ZH0GhGgzcCvT3g-] found.
[ CTDBID ] Status
[bc46fae6] (5/5) Accurately ripped
[AccurateRip ID: 000c81f3-0051773e-460d8707] found.
Track [ CRC ] Status
01 [b348fd88] (4/8) Accurately ripped
02 [f57a03ce] (4/8) Accurately ripped
03 [4c1a7f95] (4/8) Accurately ripped
04 [6a999458] (4/8) Accurately ripped
05 [521d9130] (4/8) Accurately ripped
06 [f516d39b] (4/8) Accurately ripped
07 [20dff757] (4/8) Accurately ripped
Offsetted by -30:
01 [6c12f904] (2/8) Accurately ripped
02 [3979bfb2] (2/8) Accurately ripped
03 [cc5684d3] (2/8) Accurately ripped
04 [419c7414] (2/8) Accurately ripped
05 [f660251c] (2/8) Accurately ripped
06 [916179cb] (2/8) Accurately ripped
07 [a94b6373] (2/8) Accurately ripped

Track Peak [ CRC32 ] [W/O NULL] [ LOG ]
– 99,4 [64627605] [CBD05EEB] CRC32
01 99,4 [B70238A3] [BAB97A75]
02 18,0 [B7361F8A] [B54880ED]
03 99,4 [B29CE249] [BE04DD66]
04 99,4 [66FD5DD1] [07CDE5A3]
05 99,4 [708EC0B7] [CB10EA8C]
06 91,8 [139EE308] [2F78C0C8]
07 99,4 [4E240416] [DF16F857]

Thanks to flogger77

More Esoteric Recordings' releases from my blog:
Esoteric Recordings
LOSSLESS:
Nitroflare.com
_______________

MP3 320 kbps:
Nitroflare.com