Subcategories

Supertramp - Even In The Quietest Moments... (1977)

Posted By: v3122
Supertramp - Even In The Quietest Moments... (1977)

Supertramp - Even In The Quietest Moments… (1977)
EAC | Flac(Image) + Cue + Log & MP3 CBR 320Kbps
A&M Records, 394634-2 | ~ 274 or 112 Mb | Scans Included
Progressive Rock

The title of Even in the Quietest Moments… isn't much of an exaggeration – this 1977 album finds Supertramp indulging in some of their quietest moments, spending almost the album in a subdued mood. Actually, the cover photo picture of a snow-covered piano sitting on a mountain gives a good indication of what the album sounds like: it's elegant yet mildly absurd, witty but kind of obscure. It also feels more pop than it actually is, despite the opening single, "Give a Little Bit," their poppiest song to date, as well as their biggest hit. If the rest of the album doesn't boast another song as tight or concise as this – "Downstream" comes close but it doesn't have the same hook, while "Babaji," a pseudo-spiritual moment that falls from the pop mark; the other four tracks clock in well over six minutes, with the closer, "Fool's Overture," reaching nearly 11 minutes – it nevertheless places a greater emphasis on melody and gentle textures than any previous Supertramp release. So, it's a transitional album, bridging the gap between Crime of the Century and the forthcoming Breakfast in America, and even if it's not as full formed as either, it nevertheless has plenty of fine moments aside from "Give a Little Bit," including the music hall shuffle of "Loverboy," the Euro-artiness of "From Now On," and the "Fool on a Hill" allusions on "Fool's Overture."

by Stephen Thomas Erlewine, AMG
Supertramp - Even In The Quietest Moments... (1977)


Supertramp - Even In The Quietest Moments… (1977):

Supertramp - Even In The Quietest Moments... (1977)

Tracklist:

1. Give A Little Bit Listen
2. Lover Boy Listen
3. Even In The Quietest Moments Listen
4. Downstream Listen
5. Babaji Listen
6. From Now On Listen
7. Fool's Overture

Exact Audio Copy V0.99 prebeta 4 from 23. January 2008

Отчёт EAC об извлечении, выполненном 8. мая 2011, 19:29

Supertramp / Even In The Quietest Moments…

Дисковод: HL-DT-STDVDRAM GH20LS10 Adapter: 1 ID: 1

Режим чтения : Достоверность
Использование точного потока : Да
Отключение кэша аудио : Да
Использование указателей C2 : Нет

Коррекция смещения при чтении : 667
Способность читать области Lead-in и Lead-out : Нет
Заполнение пропущенных сэмплов тишиной : Да
Удаление блоков с тишиной в начале и конце : Нет
При вычислениях CRC использовались нулевые сэмплы : Да
Интерфейс : Встроенный Win32-интерфейс для Win NT/2000

Выходной формат : Внутренние WAV-операции
Формат сэмплов : 44.100 Гц; 16 бит; стерео


TOC извлечённого CD

Трек | Старт | Длительность | Начальный сектор | Конечный сектор
––––––––––––––––––––––––––––––––––-
1 | 0:00.00 | 4:09.02 | 0 | 18676
2 | 4:09.02 | 6:50.08 | 18677 | 49434
3 | 10:59.10 | 6:28.70 | 49435 | 78604
4 | 17:28.05 | 4:01.20 | 78605 | 96699
5 | 21:29.25 | 4:51.30 | 96700 | 118554
6 | 26:20.55 | 6:21.70 | 118555 | 147199
7 | 32:42.50 | 10:53.65 | 147200 | 196239


Характеристики диапазона извлечения и сообщения об ошибках

Выбранный диапазон

Имя файла D:\Lossless\Supertramp - 1977\Supertramp - Even In The Quietest Moments….wav

Пиковый уровень 100.0 %
Качество диапазона 100.0 %
CRC теста F3521432
CRC копии F3521432
Копирование… OK

Ошибок не произошло


AccurateRip: сводка

Трек 1 точное извлечение (доверие 34) [6C0F3B7E]
Трек 2 точное извлечение (доверие 36) [BEC0D650]
Трек 3 точное извлечение (доверие 35) [36ABAFC9]
Трек 4 точное извлечение (доверие 33) [E2112708]
Трек 5 точное извлечение (доверие 34) [108C0321]
Трек 6 точное извлечение (доверие 35) [4F439F78]
Трек 7 точное извлечение (доверие 33) [429D5F5C]

Все треки извлечены точно

Конец отчёта

foobar2000 1.2.9 / Dynamic Range Meter 1.1.1
log date: 2016-03-17 12:58:19

––––––––––––––––––––––––––––––––––––––––
Analyzed: Supertramp / Even In The Quietest Moments…
––––––––––––––––––––––––––––––––––––––––

DR Peak RMS Duration Track
––––––––––––––––––––––––––––––––––––––––
DR10 0.00 dB -12.62 dB 4:09 01-Give A Little Bit
DR10 0.00 dB -12.58 dB 6:50 02-Lover Boy
DR10 0.00 dB -14.29 dB 6:29 03-Even In The Quietest Moments
DR13 0.00 dB -16.81 dB 4:01 04-Downstream
DR11 0.00 dB -13.32 dB 4:51 05-Babaji
DR11 0.00 dB -13.53 dB 6:22 06-From Now On
DR11 0.00 dB -15.69 dB 10:54 07-Fool's Overture
––––––––––––––––––––––––––––––––––––––––

Number of tracks: 7
Official DR value: DR11

Samplerate: 44100 Hz
Channels: 2
Bits per sample: 16
Bitrate: 826 kbps
Codec: FLAC

[CUETools log; Date: 17.03.2016 12:53:28; Version: 2.1.4]
[AccurateRip ID: 000ac384-00418a3e-4e0a3807] found.
Track [ CRC | V2 ] Status
01 [6c0f3b7e|afdada24] (038+033/206) Accurately ripped
02 [bec0d650|b599a454] (040+033/211) Accurately ripped
03 [36abafc9|6fa3e3cf] (039+033/205) Accurately ripped
04 [e2112708|1ff3ec95] (037+033/206) Accurately ripped
05 [108c0321|6575b177] (038+033/207) Accurately ripped
06 [4f439f78|f9551432] (039+029/204) Accurately ripped
07 [429d5f5c|13444989] (037+030/202) Accurately ripped
Offsetted by 1104:
01 [0c66332e] (053/206) Accurately ripped
02 [00369a5b] (054/211) Accurately ripped
03 [97c0e19b] (053/205) Accurately ripped
04 [b1f68ada] (054/206) Accurately ripped
05 [e593e643] (053/207) Accurately ripped
06 [85413407] (053/204) Accurately ripped
07 [616abc9b] (053/202) Accurately ripped
Offsetted by -66:
01 [254c4dd3] (000/206) No match (V2 was not tested)
02 [9ec30587] (000/211) No match
03 [b46b1149] (000/205) No match
04 [a492c32a] (000/206) No match (V2 was not tested)
05 [1fdabdb2] (000/207) No match (V2 was not tested)
06 [0242e5af] (000/204) No match
07 [78c4db32] (000/202) No match (V2 was not tested)

Track Peak [ CRC32 ] [W/O NULL] [ LOG ]
– 99,9 [F3521432] [5F6B45B2] CRC32
01 99,9 [6E5DAF5C] [8FCDAB83]
02 99,9 [6779B9FD] [8830573B]
03 99,9 [E8DB6FB5] [E29F663E]
04 99,9 [53DA71A4] [53E6B75C]
05 99,9 [53D7D8C0] [23193998]
06 99,9 [EAC5C845] [30A8C6B6]
07 99,9 [F8B888A9] [55C2F74E]

Supertramp - Even In The Quietest Moments... (1977)

All thanks go to SerBlues

Supertramp in my Blog

Download Supertramp - Even In The Quietest Moments… (1977):