Supertramp - The Very Best of Supertramp (1990) [Re-Up]

Posted By: Designol
Supertramp - The Very Best of Supertramp (1990) [Re-Up]

Supertramp - The Very Best of Supertramp (1990)
EAC | FLAC | Image (Cue&Log) ~ 536 Mb (incl 5%) | Mp3 (CBR320) ~ 206 Mb (incl 5%) | Scans included
Classic Rock, Prog Rock, Art Rock, Soft Rock | Label: A&M | # 397 091-2 | Time: 01:18:57

Originally a European compilation, The Very Best of Supertramp is the closest thing to a definitive overview of the '70s pop-prog group. Certainly, there will be hardcore fans who will notice some favorite album cuts missing – after all, despite their considerable success on the pop charts, Supertramp was as much an album rock band as ELP or Genesis – but all the hits are here, from "Bloody Well Right" to "It's Raining Again," as well as a sizable portion of their blockbuster Breakfast in America. That alone will make it worthwhile for all casual fans, but what's really nice about the collection is that it flows very smoothly, even if it isn't in chronological order. There have been other Supertramp compilations, but The Very Best of Supertramp stands head and shoulders above the rest.

Review by Stephen Thomas Erlewine, Allmusic.com

Biography
Website
Wiki

Tracklist:

01. School (05:36)
02. Goodbye Stranger (05:48)
03. The Logical Song (04:10)
04. Bloody Well Right (04:33)
05. Breakfast In America (02:40)
06. Rudy (07:19)
07. Take The Long Way Home (05:08)
08. Crime Of The Century (05:32)
09. Dreamer (03:31)
10. Ain't Nobody But Me (05:10)
11. Hide In Your Shell (06:50)
12. From Now On (06:19)
13. Give A Little Bit (04:09)
14. It's Raining Again (04:27)
15. Cannonball (07:38)


Exact Audio Copy V1.0 beta 3 from 29. August 2011

EAC extraction logfile from 8. January 2013, 16:14

Supertramp / The Very Best of Supertramp [A&M 397 091-2]

Used drive : HL-DT-STDVDRAM GH22NS90 Adapter: 4 ID: 0

Read mode : Secure
Utilize accurate stream : Yes
Defeat audio cache : Yes
Make use of C2 pointers : No

Read offset correction : 6
Overread into Lead-In and Lead-Out : No
Fill up missing offset samples with silence : Yes
Delete leading and trailing silent blocks : No
Null samples used in CRC calculations : Yes
Used interface : Installed external ASPI interface

Used output format : User Defined Encoder
Selected bitrate : 1024 kBit/s
Quality : High
Add ID3 tag : No
Command line compressor : D:\Program Files (x86)\Exact Audio Copy\wavpack.exe
Additional command line options : -hlmx2 %source% %dest%


TOC of the extracted CD

Track | Start | Length | Start sector | End sector
––––––––––––––––––––––––––––-
1 | 0:00.00 | 5:36.05 | 0 | 25204
2 | 5:36.05 | 5:48.37 | 25205 | 51341
3 | 11:24.42 | 4:10.35 | 51342 | 70126
4 | 15:35.02 | 4:33.40 | 70127 | 90641
5 | 20:08.42 | 2:40.48 | 90642 | 102689
6 | 22:49.15 | 7:19.55 | 102690 | 135669
7 | 30:08.70 | 5:08.30 | 135670 | 158799
8 | 35:17.25 | 5:32.50 | 158800 | 183749
9 | 40:50.00 | 3:31.45 | 183750 | 199619
10 | 44:21.45 | 5:10.62 | 199620 | 222931
11 | 49:32.32 | 6:50.48 | 222932 | 253729
12 | 56:23.05 | 6:19.72 | 253730 | 282226
13 | 62:43.02 | 4:09.10 | 282227 | 300911
14 | 66:52.12 | 4:27.20 | 300912 | 320956
15 | 71:19.32 | 7:38.28 | 320957 | 355334


Range status and errors

Selected range

Filename D:\eac\Supertramp\Supertramp - The Very Best of Supertramp [A&M 397 091-2].wav

Peak level 100.0 %
Extraction speed 2.1 X
Range quality 100.0 %
Test CRC 9323E8BC
Copy CRC 9323E8BC
Copy OK

No errors occurred


AccurateRip summary

Track 1 accurately ripped (confidence 3) [E8BA3665] (AR v2)
Track 2 accurately ripped (confidence 3) [877BA9B7] (AR v2)
Track 3 accurately ripped (confidence 3) [3E52CD1A] (AR v2)
Track 4 accurately ripped (confidence 3) [0D9B6F27] (AR v2)
Track 5 accurately ripped (confidence 3) [F8561D88] (AR v2)
Track 6 accurately ripped (confidence 3) [60405600] (AR v2)
Track 7 accurately ripped (confidence 3) [A96019D6] (AR v2)
Track 8 accurately ripped (confidence 3) [2636ED16] (AR v2)
Track 9 accurately ripped (confidence 3) [EF7884B0] (AR v2)
Track 10 accurately ripped (confidence 3) [ABE402FE] (AR v2)
Track 11 accurately ripped (confidence 3) [FEC8DA85] (AR v2)
Track 12 accurately ripped (confidence 3) [39B34DD4] (AR v2)
Track 13 accurately ripped (confidence 3) [A8B2BED7] (AR v2)
Track 14 accurately ripped (confidence 3) [D4E7649E] (AR v2)
Track 15 accurately ripped (confidence 3) [3055F633] (AR v2)

All tracks accurately ripped

End of status report

–– CUETools DB Plugin V2.1.3

[CTDB TOCID: 5BtHveOBGIZDY.GMFIPneR8sIaE-] found, Submit result: 5BtHveOBGIZDY.GMFIPneR8sIaE- has been confirmed
[db9b4fc4] (165/175) Accurately ripped
[c66a3e55] (002/175) Differs in 3 samples @40:05:63,44:05:63,72:05:63
[795873df] (001/175) No match
[5752dc70] (001/175) No match
[01646edd] (001/175) No match
[05bb0101] (001/175) No match
[c8aa0c4e] (001/175) No match
[825abeff] (001/175) No match
[08f89f17] (001/175) No match
[760b71be] (001/175) No match
You can use CUETools to repair this rip.


==== Log checksum 9897EF2718B55FD71B0DFAAD991D57379F6D49ED4BC3B35B1FDF5412596D9496 ====

foobar2000 1.2.1 / Dynamic Range Meter 1.1.1
log date: 2013-01-25 13:39:18

––––––––––––––––––––––––––––––––––––––––
Analyzed: Supertramp / The Very Best of Supertramp [A&M 397 091-2]
––––––––––––––––––––––––––––––––––––––––

DR Peak RMS Duration Track
––––––––––––––––––––––––––––––––––––––––
DR10 0.00 dB -14.33 dB 5:36 01-School
DR10 0.00 dB -13.09 dB 5:48 02-Goodbye Stranger
DR11 0.00 dB -13.17 dB 4:10 03-The Logical Song
DR12 0.00 dB -14.33 dB 4:34 04-Bloody Well Right
DR11 0.00 dB -13.03 dB 2:41 05-Breakfast In America
DR11 0.00 dB -15.13 dB 7:20 06-Rudy
DR10 0.00 dB -13.55 dB 5:08 07-Take The Long Way Home
DR11 0.00 dB -13.59 dB 5:33 08-Crime Of The Century
DR10 0.00 dB -14.36 dB 3:32 09-Dreamer
DR10 0.00 dB -13.01 dB 5:11 10-Ain't Nobody But Me
DR10 0.00 dB -13.23 dB 6:51 11-Hide In Your Shell
DR11 0.00 dB -13.50 dB 6:20 12-From Now On
DR10 0.00 dB -12.62 dB 4:09 13-Give A Little Bit
DR10 0.00 dB -11.15 dB 4:27 14-It's Raining Again
DR12 0.00 dB -13.66 dB 7:38 15-Cannonball
––––––––––––––––––––––––––––––––––––––––

Number of tracks: 15
Official DR value: DR11

Samplerate: 44100 Hz
Channels: 2
Bits per sample: 16
Bitrate: 876 kbps
Codec: FLAC
================================================================================

Supertramp - The Very Best of Supertramp (1990) [Re-Up]

Supertramp - The Very Best of Supertramp (1990) [Re-Up]

All thanks to original releaser - taurus66

More interesting music in My Blog