Subcategories

Supertramp - Live '88 (1988)

Posted By: gribovar
Supertramp - Live '88 (1988)

Supertramp - Live '88 (1988)
EAC Rip | FLAC (image+.cue+log) - 378 MB | MP3 CBR 320 kbps (LAME 3.93) - 141 MB | Covers - 78 MB
Genre: Progressive Rock, Pop Rock | RAR 3% Rec. | Label: A&M Records (396 982-2)

Live '88 is the second live album by the English rock band Supertramp released in October 1988 on A&M Records. Originally recorded on two track cassette direct from the sound board for Rick Davies' use, Live '88 features the 4 piece lineup of the group augmented by additional players including Mark Hart (later a permanent member of the group and a future member of Crowded House) playing guitar and singing songs originally sung by Roger Hodgson. Live '88 was initially not intended for a commercial release, but Davies was so pleased with the vibe of the performances he authorized A&M to put it out.
Live '88 was only available in print very briefly. The album features two cover songs, "Hoochie Coochie Man" by Willie Dixon and "Don't You Lie To Me (I Get Evil)". The rest of the album consists of performances from the band's last set list to promote Free as a Bird (1987), along with a handful of numbers from throughout their career.
The band went on hiatus shortly after this album's release. Live '88 has not returned to print, unlike most of the Supertramp discography, and there are no songs from this release represented on the Retrospectacle: The Supertramp Anthology release.

Tracklist:
01. You Started Laughing
02. It's Alright
03. Not The Moment
04. Bloody Well Right
05. Breakfast In America
06. From Now On
07. Free As A Bird
08. Oh Darling
09. Just Another Nervous Wreck
10. The Logical Song
11. I'm Your Hoochie Cooche Man
12. Don't You Lie To Me
13. Crime Of The Century

Total time: 01:00:12

Exact Audio Copy V1.3 from 2. September 2016

EAC extraction logfile from 14. November 2019, 20:20

Supertramp / Live '88 (396 982-2)

Used drive : HL-DT-STDVDRAM GE20NU11 Adapter: 1 ID: 0

Read mode : Secure
Utilize accurate stream : Yes
Defeat audio cache : Yes
Make use of C2 pointers : No

Read offset correction : 667
Overread into Lead-In and Lead-Out : No
Fill up missing offset samples with silence : Yes
Delete leading and trailing silent blocks : No
Null samples used in CRC calculations : Yes
Used interface : Native Win32 interface for Win NT & 2000

Used output format : User Defined Encoder
Selected bitrate : 896 kBit/s
Quality : High
Add ID3 tag : No
Command line compressor : C:\Program Files\Exact Audio Copy\Flac\flac.exe
Additional command line options : -V -8 -T "Date=%year%" -T "Genre=%genre%" %source%


TOC of the extracted CD

Track | Start | Length | Start sector | End sector
––––––––––––––––––––––––––––-
1 | 0:00.32 | 1:45.05 | 32 | 7911
2 | 1:45.37 | 5:31.18 | 7912 | 32754
3 | 7:16.55 | 4:40.40 | 32755 | 53794
4 | 11:57.20 | 6:21.50 | 53795 | 82419
5 | 18:18.70 | 2:52.32 | 82420 | 95351
6 | 21:11.27 | 7:58.68 | 95352 | 131269
7 | 29:10.20 | 4:40.67 | 131270 | 152336
8 | 33:51.12 | 3:45.40 | 152337 | 169251
9 | 37:36.52 | 4:34.18 | 169252 | 189819
10 | 42:10.70 | 4:05.27 | 189820 | 208221
11 | 46:16.22 | 4:29.48 | 208222 | 228444
12 | 50:45.70 | 2:45.20 | 228445 | 240839
13 | 53:31.15 | 6:41.07 | 240840 | 270921


Range status and errors

Selected range

Filename Z:\OdW\SUPERTRAMP DISCOGRAPHY\1988 - Live '88 (396 982-2)\Supertramp - Live '88 (396 982-2).wav

Peak level 94.0 %
Extraction speed 7.4 X
Range quality 100.0 %
Test CRC 4EB77D4C
Copy CRC 4EB77D4C
Copy OK

No errors occurred


AccurateRip summary

Track 1 accurately ripped (confidence 69) [DA03F120] (AR v2)
Track 2 accurately ripped (confidence 72) [0DA8A8BC] (AR v2)
Track 3 accurately ripped (confidence 70) [B2210458] (AR v2)
Track 4 accurately ripped (confidence 71) [8D08F4E1] (AR v2)
Track 5 accurately ripped (confidence 71) [5779B146] (AR v2)
Track 6 accurately ripped (confidence 69) [10902A4A] (AR v2)
Track 7 accurately ripped (confidence 71) [6F92535F] (AR v2)
Track 8 accurately ripped (confidence 70) [5F5B09A0] (AR v2)
Track 9 accurately ripped (confidence 71) [628B2EB6] (AR v2)
Track 10 accurately ripped (confidence 69) [A74423DB] (AR v2)
Track 11 accurately ripped (confidence 67) [288C55D1] (AR v2)
Track 12 accurately ripped (confidence 67) [0702F8AD] (AR v2)
Track 13 accurately ripped (confidence 66) [14F79AF6] (AR v2)

All tracks accurately ripped

End of status report

–– CUETools DB Plugin V2.1.6

[CTDB TOCID: kH59eeBRJ_Rzh8ecYqzVsGdalFc-] found
Submit result: kH59eeBRJ_Rzh8ecYqzVsGdalFc- has been confirmed, kH59eeBRJ_Rzh8ecYqzVsGdalFc- has been confirmed
Track | CTDB Status
1 | (156/159) Accurately ripped
2 | (155/159) Accurately ripped
3 | (155/159) Accurately ripped
4 | (155/159) Accurately ripped
5 | (152/159) Accurately ripped
6 | (153/159) Accurately ripped
7 | (153/159) Accurately ripped
8 | (151/159) Accurately ripped
9 | (156/159) Accurately ripped
10 | (155/159) Accurately ripped
11 | (148/159) Accurately ripped
12 | (155/159) Accurately ripped
13 | (149/159) Accurately ripped


==== Log checksum C50F04DD73434728E3558B429E371CFAC1FC62A3C9C39B1F044CFB8B455891E6 ====

[CUETools log; Date: 03.12.2019 13:59:20; Version: 2.1.4]
Pregap length 00:00:32.
[CTDB TOCID: kH59eeBRJ_Rzh8ecYqzVsGdalFc-] found.
Track | CTDB Status
1 | (160/163) Accurately ripped
2 | (159/163) Accurately ripped
3 | (159/163) Accurately ripped
4 | (159/163) Accurately ripped
5 | (156/163) Accurately ripped
6 | (157/163) Accurately ripped
7 | (157/163) Accurately ripped
8 | (155/163) Accurately ripped
9 | (160/163) Accurately ripped
10 | (159/163) Accurately ripped
11 | (152/163) Accurately ripped
12 | (159/163) Accurately ripped
13 | (153/163) Accurately ripped
[AccurateRip ID: 001c6ece-011f4b91-9c0e1c0d] found.
Track [ CRC | V2 ] Status
01 [33f6eba1|da03f120] (24+69/93) Accurately ripped
02 [7a237200|0da8a8bc] (24+72/96) Accurately ripped
03 [7f6d0e44|b2210458] (24+70/94) Accurately ripped
04 [8cc24589|8d08f4e1] (24+71/95) Accurately ripped
05 [0454b9a5|5779b146] (23+71/94) Accurately ripped
06 [a86a9020|10902a4a] (23+69/92) Accurately ripped
07 [ad1433ca|6f92535f] (24+71/95) Accurately ripped
08 [1f8adeca|5f5b09a0] (24+70/94) Accurately ripped
09 [878e7a5b|628b2eb6] (23+71/94) Accurately ripped
10 [0f794250|a74423db] (24+69/93) Accurately ripped
11 [dad7c300|288c55d1] (22+67/89) Accurately ripped
12 [9d0371d2|0702f8ad] (23+67/90) Accurately ripped
13 [b0f3c2f1|14f79af6] (20+66/86) Accurately ripped

Track Peak [ CRC32 ] [W/O NULL] [ LOG ]
– 94,0 [4EB77D4C] [70A363E3] CRC32
01 46,0 [BE2CD7A1] [41D5763A]
02 77,7 [B94B74DE] [FEDFCCB4]
03 89,6 [F161D3B6] [CA9BA4EF]
04 68,5 [7FD1C822] [FB687D67]
05 75,1 [08623FF8] [47C742DF]
06 83,9 [73882053] [2DA153B5]
07 85,1 [2DB802FD] [FBE8D159]
08 92,1 [C3189504] [F0509F6E]
09 92,0 [0258589E] [43365AE7]
10 87,0 [E9E2C297] [79534DEC]
11 94,0 [F9080370] [9E0BB784]
12 81,7 [BBB6FC17] [730E6528]
13 86,1 [77B3FE35] [C89E4ACD]

Thanks to Olaf der Weisse

See also:
Supertramp - It Was The Best Of Times (1999) [2CD Edition]