Subcategories

Survivor - Survivor (1979) {1987, Japan 1st Press}

Posted By: popsakov
Survivor - Survivor (1979) {1987, Japan 1st Press}

Survivor - Survivor (1979) {1987, Japan 1st Press}
EAC Rip | FLAC (Img) + Cue + Log ~ 300 Mb | MP3 CBR320 ~ 108 Mb
Full Scans ~ 53 Mb | 00:44:25 | RAR 5% Recovery
Melodic Hard Rock, AOR | Scotti Bros. Records / Canyon Records #D32Y0099

Survivor is the eponymous debut album by American rock band Survivor, recorded in 1979 and released in February 1980. It is their only album with original drummer Gary Smith and bassist Dennis Keith Johnson. The album lightly impacted the charts, managing a placement of #169 on the Billboard Hot 100 in the Spring of 1980. However, the opening track "Somewhere In America" was a regional hit in the Chicago area, and the song "Youngblood", with its dramatic guitar intro, proved to be something of a blueprint for the band's smash hit of two years later, "Eye of the Tiger". The single "Rebel Girl" was recorded about a year after the album sessions, though the Japanese release of the album on CD includes it as song number six. The model on the cover of the album is Kim Basinger.

***************

Survivor - Survivor (1979) {1987, Japan 1st Press}

Survivor - Survivor (1979) {1987, Japan 1st Press}

Track List:

01. Somewhere In America [5:14]
02. Can't Getcha Offa My Mind [3:01]
03. Let It Be Now [3:39]
04. As Soon As Love Finds Me [2:51]
05. Youngblood [3:31]
06. Rebel Girl (bonus track) [3:46]
07. Love Has Got Me [3:41]
08. Whole Town's Talking [3:35]
09. 20/20 [3:28]
10. Freelance [3:41]
11. Nothing Can Shake Me (From Your Love) [4:09]
12. Whatever It Takes [3:50]

Personnel:
Frankie Sullivan - lead guitar, vocals
Dave Bickler - lead vocals, keyboards
Jim Peterik - guitar, lead vocal on "Love Has Got Me"
Gary Smith - drums, percussions
Dennis Keith Johnson - bass, moog pedals

Exact Audio Copy V1.0 beta 3 from 29. August 2011

EAC extraction logfile from 8. October 2016, 0:48

Survivor / Survivor

Used drive : SlimtypeDVD A DS8A5SH Adapter: 0 ID: 0

Read mode : Secure
Utilize accurate stream : Yes
Defeat audio cache : Yes
Make use of C2 pointers : No

Read offset correction : 6
Overread into Lead-In and Lead-Out : No
Fill up missing offset samples with silence : Yes
Delete leading and trailing silent blocks : No
Null samples used in CRC calculations : Yes
Used interface : Installed external ASPI interface

Used output format : User Defined Encoder
Selected bitrate : 320 kBit/s
Quality : High
Add ID3 tag : No
Command line compressor : C:\Program Files (x86)\Exact Audio Copy\Flac\flac.exe
Additional command line options : -V -8 -T "Date=%year%" -T "Genre=%genre%" %source%


TOC of the extracted CD

Track | Start | Length | Start sector | End sector
––––––––––––––––––––––––––––-
1 | 0:00.00 | 5:13.57 | 0 | 23531
2 | 5:13.57 | 3:01.08 | 23532 | 37114
3 | 8:14.65 | 3:39.27 | 37115 | 53566
4 | 11:54.17 | 2:51.15 | 53567 | 66406
5 | 14:45.32 | 3:31.05 | 66407 | 82236
6 | 18:16.37 | 3:45.50 | 82237 | 99161
7 | 22:02.12 | 3:40.50 | 99162 | 115711
8 | 25:42.62 | 3:35.00 | 115712 | 131836
9 | 29:17.62 | 3:27.70 | 131837 | 147431
10 | 32:45.57 | 3:40.50 | 147432 | 163981
11 | 36:26.32 | 4:09.05 | 163982 | 182661
12 | 40:35.37 | 3:49.40 | 182662 | 199876


Range status and errors

Selected range

Filename D:\My Music\Survivor - 1979 Survivor\Survivor - Survivor.wav

Peak level 97.7 %
Extraction speed 4.1 X
Range quality 100.0 %
Test CRC DCC9A7B3
Copy CRC DCC9A7B3
Copy OK

No errors occurred


AccurateRip summary

Track 1 cannot be verified as accurate (confidence 3) [C3934601], AccurateRip returned [D6E7CE12] (AR v2)
Track 2 cannot be verified as accurate (confidence 3) [65762D21], AccurateRip returned [FE7FD198] (AR v2)
Track 3 cannot be verified as accurate (confidence 3) [F220AC78], AccurateRip returned [7159ACEA] (AR v2)
Track 4 cannot be verified as accurate (confidence 3) [CBB3FC59], AccurateRip returned [96D06F63] (AR v2)
Track 5 cannot be verified as accurate (confidence 3) [E4C1C0DF], AccurateRip returned [0FFE1CB9] (AR v2)
Track 6 cannot be verified as accurate (confidence 3) [C9BD3603], AccurateRip returned [596D8DAE] (AR v2)
Track 7 cannot be verified as accurate (confidence 3) [F3AF992D], AccurateRip returned [2DD1EDA2] (AR v2)
Track 8 cannot be verified as accurate (confidence 3) [7BFC824A], AccurateRip returned [D8B25F53] (AR v2)
Track 9 cannot be verified as accurate (confidence 3) [190DD76A], AccurateRip returned [01D96EB5] (AR v2)
Track 10 cannot be verified as accurate (confidence 3) [ECBFF912], AccurateRip returned [173C9F26] (AR v2)
Track 11 cannot be verified as accurate (confidence 3) [86C6F5B9], AccurateRip returned [54C6594F] (AR v2)
Track 12 cannot be verified as accurate (confidence 3) [B5884A8B], AccurateRip returned [964634DE] (AR v2)

No tracks could be verified as accurate
You may have a different pressing from the one(s) in the database

End of status report

==== Log checksum 7DAB57EBB2353710EF86C1E095924379D2817DD957EB8981C1456D26FBB92570 ====

[CUETools log; Date: 23.10.2016 5:49:29; Version: 2.1.5]
[CTDB TOCID: amCHWE8y0liSUakiDUH9SBbgZ.4-] found.
Track | CTDB Status
1 | (3/3) Accurately ripped
2 | (3/3) Accurately ripped
3 | (3/3) Accurately ripped
4 | (3/3) Accurately ripped
5 | (3/3) Accurately ripped
6 | (3/3) Accurately ripped
7 | (3/3) Accurately ripped
8 | (3/3) Accurately ripped
9 | (3/3) Accurately ripped
10 | (3/3) Accurately ripped
11 | (3/3) Accurately ripped
12 | (3/3) Accurately ripped
[AccurateRip ID: 0013e3e2-00b83805-bd0a690c] found.
Track [ CRC | V2 ] Status
01 [103d9220|c3934601] (0+0/6) No match
02 [e6da5906|65762d21] (0+0/6) No match
03 [674ab3a0|f220ac78] (0+0/6) No match
04 [138ea897|cbb3fc59] (0+0/6) No match
05 [bb183bc1|e4c1c0df] (0+0/6) No match
06 [04218b9a|c9bd3603] (0+0/6) No match
07 [d8cde2f8|f3af992d] (0+0/6) No match
08 [a666ab29|7bfc824a] (0+0/6) No match
09 [951a44eb|190dd76a] (0+0/6) No match
10 [88621604|ecbff912] (0+0/6) No match
11 [753096c5|86c6f5b9] (0+0/6) No match
12 [f058736c|b5884a8b] (0+0/6) No match
Offsetted by -82:
01 [d6e7ce12] (3/6) Accurately ripped
02 [fe7fd198] (3/6) Accurately ripped
03 [7159acea] (3/6) Accurately ripped
04 [96d06f63] (3/6) Accurately ripped
05 [0ffe1cb9] (3/6) Accurately ripped
06 [596d8dae] (3/6) Accurately ripped
07 [2dd1eda2] (3/6) Accurately ripped
08 [d8b25f53] (3/6) Accurately ripped
09 [01d96eb5] (3/6) Accurately ripped
10 [173c9f26] (3/6) Accurately ripped
11 [54c6594f] (3/6) Accurately ripped
12 [964634de] (3/6) Accurately ripped

Track Peak [ CRC32 ] [W/O NULL] [ LOG ]
– 97,7 [DCC9A7B3] [12BD571A] CRC32
01 90,5 [1BEBA282] [2D9D82A4]
02 97,7 [6ECB0873] [35F0342E]
03 94,1 [0EBF585D] [87D0D1DA]
04 89,6 [8386FB05] [DE9D9D35]
05 97,7 [91DC28B0] [B0A970CD]
06 97,7 [A05812CC] [F91A9AA3]
07 85,5 [BEFF1861] [4243DD7C]
08 74,9 [9F883181] [22F5EB17]
09 82,3 [BE915498] [DD7B6277]
10 78,5 [AAC75311] [1BF18781]
11 68,8 [4E73A31C] [82BEC536]
12 84,0 [1DF31E2F] [F79E93D4]

Survivor - Survivor (1979) {1987, Japan 1st Press}


All thanks go to kolushew

>>> My Blog <<<

DOWNLOAD: