Subcategories

Suspended Memories - Forgotten Gods (1993)

Posted By: gribovar
Suspended Memories - Forgotten Gods (1993)

Suspended Memories - Forgotten Gods (1993)
EAC Rip | FLAC (image+.cue+log) - 285 MB | MP3 CBR 320 kbps (LAME 3.93) - 151 MB | Covers - 65 MB
Genre: Electronic, Tribal, Ambient | RAR 3% Rec. | Label: Hearts Of Space (HS11034-2)

The music rises up from the darkness and howls at the moon. An ancient voice chants in serpentine ecstacy, only to subside and hover next to silence. In those moments when the sound dissolves beyond recognition, the subconscious leaks through, whispering of faded visions painted on stone, of memories suspended by the passage of time, of gods long forgotten. This is the world where Steve Roach, Jorge Reyes and Suso Saiz create their music. There are no scores, no plans, in the initial stages of composition. Like jazz artists who extemporize freely through a shared musical language, the members of Suspended Memories connect on an intuitive level of pure sound. But it isn't jazz they're playing. Roach, Reyes, and Saiz practice a form of collective improvisation from another time, another place, maybe one that never really existed before, except in the shrouded landscapes of a shaman's dream.
Tracklist:
01. Different Deserts
02. Snake Song
03. Night Devotion
04. Saguaro
05. Mutual Tribes
06. Suspended Memories, Forgotten Gods
07. Ritual Noise
08. Distant Look
09. Shaman's Dream

Total time: 01:04:04

Exact Audio Copy V0.99 prebeta 4 from 23. January 2008

EAC extraction logfile from 24. January 2009, 13:34

Suspended Memories / Forgotten Gods

Used drive : PIONEER DVD-RW DVR-111 Adapter: 3 ID: 0

Read mode : Secure
Utilize accurate stream : Yes
Defeat audio cache : Yes
Make use of C2 pointers : No

Read offset correction : 48
Overread into Lead-In and Lead-Out : No
Fill up missing offset samples with silence : Yes
Delete leading and trailing silent blocks : No
Null samples used in CRC calculations : Yes
Used interface : Installed external ASPI interface

Used output format : User Defined Encoder
Selected bitrate : 1024 kBit/s
Quality : High
Add ID3 tag : No
Command line compressor : C:\Program Files\Exact Audio Copy\Flac\flac.exe
Additional command line options : -8 -V -T "ARTIST=%a" -T "ALBUM=%g" -T "DATE=%y" -T "GENRE=%m" %s -o %d


TOC of the extracted CD

Track | Start | Length | Start sector | End sector
––––––––––––––––––––––––––––-
1 | 0:00.32 | 12:21.60 | 32 | 55666
2 | 12:22.17 | 6:44.23 | 55667 | 85989
3 | 19:06.40 | 8:51.27 | 85990 | 125841
4 | 27:57.67 | 5:23.08 | 125842 | 150074
5 | 33:21.00 | 7:07.40 | 150075 | 182139
6 | 40:28.40 | 5:59.32 | 182140 | 209096
7 | 46:27.72 | 3:48.40 | 209097 | 226236
8 | 50:16.37 | 7:39.05 | 226237 | 260666
9 | 57:55.42 | 6:08.15 | 260667 | 288281


Range status and errors

Selected range

Filename D:\temp\nnm\Suspended Memories - Forgotten Gods.wav

Peak level 98.9 %
Range quality 100.0 %
Test CRC 09C21F75
Copy CRC 09C21F75
Copy OK

No errors occurred


AccurateRip summary

Track 1 not present in database
Track 2 not present in database
Track 3 not present in database
Track 4 not present in database
Track 5 not present in database
Track 6 not present in database
Track 7 not present in database
Track 8 not present in database
Track 9 not present in database

None of the tracks are present in the AccurateRip database

End of status report

[CUETools log; Date: 04.12.2019 19:32:30; Version: 2.1.4]
Pregap length 00:00:32.
[CTDB TOCID: Md8JMpiH.fb5NIz9Fqpo.6TrB08-] found.
Track | CTDB Status
1 | (16/16) Accurately ripped
2 | (16/16) Accurately ripped
3 | (16/16) Accurately ripped
4 | (16/16) Accurately ripped
5 | (15/16) Accurately ripped
6 | (16/16) Accurately ripped
7 | (16/16) Accurately ripped
8 | (16/16) Accurately ripped
9 | (16/16) Accurately ripped
[AccurateRip ID: 00182b9d-00ab2d8d-7f0f0309] found.
Track [ CRC | V2 ] Status
01 [384e135f|38514bca] (02+07/19) Accurately ripped
02 [110de19c|aac882b2] (03+07/19) Accurately ripped
03 [7a0b85b3|9b8edfb6] (02+07/19) Accurately ripped
04 [d5911bd6|06befa80] (02+07/19) Accurately ripped
05 [4266f8d6|3efe6013] (02+07/19) Accurately ripped
06 [4f20ae88|8cbaf7ad] (02+07/19) Accurately ripped
07 [49388a17|9e983352] (02+07/18) Accurately ripped
08 [cc78717f|81acf770] (02+07/19) Accurately ripped
09 [f2e3b32d|3b230aed] (02+07/18) Accurately ripped
Offsetted by 412:
01 [95dfc252] (04/19) Accurately ripped
02 [fbad2897] (03/19) Accurately ripped
03 [7f38b11c] (04/19) Accurately ripped
04 [16387899] (04/19) Accurately ripped
05 [e6358863] (04/19) Accurately ripped
06 [e6f1f8e8] (04/19) Accurately ripped
07 [2e4ad631] (03/18) Accurately ripped
08 [e6a04cd8] (04/19) Accurately ripped
09 [d2c25ba7] (03/18) Accurately ripped
Offsetted by 574:
01 [82eb3bf3] (00/19) No match (V2 was not tested)
02 [3454ec56] (00/19) No match (V2 was not tested)
03 [ef95e8ce] (00/19) No match (V2 was not tested)
04 [06e4f156] (00/19) No match (V2 was not tested)
05 [09982e0c] (00/19) No match (V2 was not tested)
06 [4ef4492c] (00/19) No match (V2 was not tested)
07 [9c27591e] (00/18) No match (V2 was not tested)
08 [ccee71c6] (00/19) No match (V2 was not tested)
09 [ab205ee3] (00/18) No match (V2 was not tested)
Offsetted by 634:
01 [a106b652] (00/19) No match (V2 was not tested)
02 [beee2d4d] (00/19) No match (V2 was not tested)
03 [883658bb] (00/19) No match (V2 was not tested)
04 [2555e991] (00/19) No match (V2 was not tested)
05 [a2ef9793] (00/19) No match (V2 was not tested)
06 [ae824345] (00/19) No match (V2 was not tested)
07 [34d6ddb6] (00/18) No match (V2 was not tested)
08 [3558422a] (00/19) No match (V2 was not tested)
09 [eca36d27] (00/18) No match (V2 was not tested)

Track Peak [ CRC32 ] [W/O NULL] [ LOG ]
– 98,9 [09C21F75] [B78D7182] CRC32
01 98,1 [E14910B4] [2B70F4ED]
02 87,2 [9489B0A0] [54FBF76D]
03 93,5 [D6834C48] [8525771F]
04 28,2 [4F3015DE] [B8FE9B1F]
05 98,9 [44136B3A] [DE5A078F]
06 74,3 [047267EA] [04873586]
07 93,6 [1796D523] [78E02F98]
08 61,8 [33909433] [46DC527B]
09 66,1 [07A8B50D] [01B487C2]

Thanks to _ok

See also: