Tags
Language
Tags

Suzanne Vega - 99.9 F° (1992) [Re-Up]

Posted By:
Suzanne Vega - 99.9 F° (1992) [Re-Up]

Suzanne Vega - 99.9 F° (1992)
EAC | FLAC | Tracks (Cue&Log) ~ 254 Mb | Mp3 (CBR320) ~ 136 Mb | Scans included
Singer-Songwriter, Folk Rock, Alternative Folk | Label: A&M | # 540 012-2 | Time: 00:39:45

While 99.9 F° is not the techno album that Suzanne Vega was rumored to be making, it does offer a significant departure from her previous contemporary folk albums. Vega uses more synthesizers and drum machines, often evoking a bizarre carnivalesque atmosphere on the album. Still, 99.9 F° is a folk album at heart; every song is steeped in traditional song form, and Vega's writing is strong. Fans of Vega's previous work might be taken aback, but those willing to listen to the album will find that she has produced one of her strongest yet.

Review by Stephen Thomas Erlewine, Allmusic.com

Suzanne Vega - 99.9 F° (1992) [Re-Up]



Tracklist:

01. Rock In This Pocket (Song of David) (03:30)
02. Blood Makes Noise (02:27)
03. In Liverpool (04:40)
04. 99.9 F° (03:15)
05. Blood Sings (03:17)
06. Fat Man & Dancing Girl (02:18)
07. (If you were) In My Movie (03:05)
08. As a Child (02:55)
09. Bad Wisdom (03:21)
10. When Heroes Go Down (01:54)
11. As Girls Go (03:26)
12. Song of Sand (03:05)
13. Private Goes Public (01:56)


Exact Audio Copy V1.1 from 23. June 2015

EAC extraction logfile from 24. December 2015, 14:14

Suzanne Vega / 99.9 F° (540 012-2)

Used drive : HL-DT-STDVDRAM GE20NU11 Adapter: 1 ID: 0

Read mode : Secure
Utilize accurate stream : Yes
Defeat audio cache : Yes
Make use of C2 pointers : No

Read offset correction : 667
Overread into Lead-In and Lead-Out : No
Fill up missing offset samples with silence : Yes
Delete leading and trailing silent blocks : No
Null samples used in CRC calculations : Yes
Used interface : Native Win32 interface for Win NT & 2000
Gap handling : Appended to previous track

Used output format : User Defined Encoder
Selected bitrate : 896 kBit/s
Quality : High
Add ID3 tag : No
Command line compressor : C:\Program Files\EAC 3\Exact Audio Copy\Flac\flac.exe
Additional command line options : -V -8 -T "Genre=%genre%" -T "Artist=%artist%" -T "Title=%title%" -T "Album=%albumtitle%" -T "Date=%year%" -T "Tracknumber=%tracknr%" -T "Comment=%comment%" %source%


TOC of the extracted CD

Track | Start | Length | Start sector | End sector
––––––––––––––––––––––––––––-
1 | 0:00.33 | 3:30.72 | 33 | 15854
2 | 3:31.30 | 2:28.10 | 15855 | 26964
3 | 5:59.40 | 4:40.55 | 26965 | 48019
4 | 10:40.20 | 3:16.18 | 48020 | 62737
5 | 13:56.38 | 3:17.65 | 62738 | 77577
6 | 17:14.28 | 2:19.20 | 77578 | 88022
7 | 19:33.48 | 3:05.52 | 88023 | 101949
8 | 22:39.25 | 2:55.48 | 101950 | 115122
9 | 25:34.73 | 3:23.60 | 115123 | 130407
10 | 28:58.58 | 1:54.62 | 130408 | 139019
11 | 30:53.45 | 3:27.15 | 139020 | 154559
12 | 34:20.60 | 3:28.18 | 154560 | 170177
13 | 37:49.03 | 1:56.65 | 170178 | 178942


Track 1

Filename Z:\OdW\SUZANNE VEGA\1992 - 99.9 F° (540 012-2)\01. Rock in this pocket (Song of David).wav

Pre-gap length 0:00:02.33

Peak level 97.3 %
Extraction speed 4.1 X
Track quality 100.0 %
Test CRC A071224A
Copy CRC A071224A
Accurately ripped (confidence 200) [CE84E88B] (AR v2)
Copy OK

Track 2

Filename Z:\OdW\SUZANNE VEGA\1992 - 99.9 F° (540 012-2)\02. Blood makes noise.wav

Peak level 97.2 %
Extraction speed 4.2 X
Track quality 100.0 %
Test CRC 05AA832E
Copy CRC 05AA832E
Accurately ripped (confidence 200) [342D2F23] (AR v2)
Copy OK

Track 3

Filename Z:\OdW\SUZANNE VEGA\1992 - 99.9 F° (540 012-2)\03. In Liverpool.wav

Pre-gap length 0:00:00.40

Peak level 97.2 %
Extraction speed 3.2 X
Track quality 100.0 %
Test CRC D2AF089A
Copy CRC D2AF089A
Accurately ripped (confidence 200) [2480A488] (AR v2)
Copy OK

Track 4

Filename Z:\OdW\SUZANNE VEGA\1992 - 99.9 F° (540 012-2)\04. 99.9 F°.wav

Peak level 97.2 %
Extraction speed 3.3 X
Track quality 100.0 %
Test CRC 94F49A4E
Copy CRC 94F49A4E
Accurately ripped (confidence 200) [DF7DF751] (AR v2)
Copy OK

Track 5

Filename Z:\OdW\SUZANNE VEGA\1992 - 99.9 F° (540 012-2)\05. Blood sings.wav

Pre-gap length 0:00:01.00

Peak level 69.7 %
Extraction speed 3.0 X
Track quality 99.9 %
Test CRC 97173CFB
Copy CRC 97173CFB
Accurately ripped (confidence 200) [B476B15D] (AR v2)
Copy OK

Track 6

Filename Z:\OdW\SUZANNE VEGA\1992 - 99.9 F° (540 012-2)\06. Fat man & dancing girl.wav

Peak level 97.2 %
Extraction speed 3.5 X
Track quality 100.0 %
Test CRC 29C79FB5
Copy CRC 29C79FB5
Accurately ripped (confidence 200) [482BA63D] (AR v2)
Copy OK

Track 7

Filename Z:\OdW\SUZANNE VEGA\1992 - 99.9 F° (540 012-2)\07. (If you were) In my movie.wav

Pre-gap length 0:00:01.10

Peak level 97.2 %
Extraction speed 3.8 X
Track quality 100.0 %
Test CRC B217C5FB
Copy CRC B217C5FB
Accurately ripped (confidence 200) [7C17995F] (AR v2)
Copy OK

Track 8

Filename Z:\OdW\SUZANNE VEGA\1992 - 99.9 F° (540 012-2)\08. As a child.wav

Peak level 97.2 %
Extraction speed 3.2 X
Track quality 99.9 %
Test CRC 18501A02
Copy CRC 18501A02
Accurately ripped (confidence 200) [C2D6B78C] (AR v2)
Copy OK

Track 9

Filename Z:\OdW\SUZANNE VEGA\1992 - 99.9 F° (540 012-2)\09. Bad wisdom.wav

Peak level 97.2 %
Extraction speed 4.0 X
Track quality 100.0 %
Test CRC ACC3A253
Copy CRC ACC3A253
Accurately ripped (confidence 200) [CCCF6439] (AR v2)
Copy OK

Track 10

Filename Z:\OdW\SUZANNE VEGA\1992 - 99.9 F° (540 012-2)\10. When heroes go down.wav

Pre-gap length 0:00:02.38

Peak level 97.2 %
Extraction speed 2.9 X
Track quality 99.9 %
Test CRC 090DF307
Copy CRC 090DF307
Accurately ripped (confidence 200) [EA6437B4] (AR v2)
Copy OK

Track 11

Filename Z:\OdW\SUZANNE VEGA\1992 - 99.9 F° (540 012-2)\11. As girls go.wav

Pre-gap length 0:00:00.55

Peak level 97.2 %
Extraction speed 4.4 X
Track quality 100.0 %
Test CRC 5A2721E7
Copy CRC 5A2721E7
Accurately ripped (confidence 200) [374347F4] (AR v2)
Copy OK

Track 12

Filename Z:\OdW\SUZANNE VEGA\1992 - 99.9 F° (540 012-2)\12. Song of sand.wav

Pre-gap length 0:00:00.47

Peak level 67.6 %
Extraction speed 4.5 X
Track quality 100.0 %
Test CRC 501B9B9A
Copy CRC 501B9B9A
Accurately ripped (confidence 200) [CEA84C72] (AR v2)
Copy OK

Track 13

Filename Z:\OdW\SUZANNE VEGA\1992 - 99.9 F° (540 012-2)\13. Private goes public.wav

Pre-gap length 0:00:22.73

Peak level 87.5 %
Extraction speed 3.4 X
Track quality 99.9 %
Test CRC 87F89C5B
Copy CRC 87F89C5B
Accurately ripped (confidence 200) [859A4F41] (AR v2)
Copy OK


All tracks accurately ripped

No errors occurred

End of status report

–– CUETools DB Plugin V2.1.6

[CTDB TOCID: RUIN4GpHddo61609SKonTEeYyV0-] found
Submit result: RUIN4GpHddo61609SKonTEeYyV0- has been confirmed
Track | CTDB Status
1 | (121/124) Accurately ripped
2 | (118/124) Accurately ripped, or (1/124) differs in 2178 samples @00:00:30-00:00:32
3 | (120/124) Accurately ripped
4 | (118/124) Accurately ripped, or (1/124) differs in 2252 samples @00:00:30-00:00:32
5 | (119/124) Accurately ripped
6 | (118/124) Accurately ripped, or (1/124) differs in 1946 samples @00:00:30-00:00:32
7 | (118/124) Accurately ripped, or (1/124) differs in 1954 samples @00:00:30-00:00:32
8 | (119/124) Accurately ripped, or (1/124) differs in 1789 samples @00:00:30-00:00:32
9 | (118/124) Accurately ripped, or (1/124) differs in 2024 samples @00:00:30-00:00:32
10 | (117/124) Accurately ripped
11 | (117/124) Accurately ripped, or (1/124) differs in 1833 samples @00:00:30-00:00:32
12 | (117/124) Accurately ripped, or (1/124) differs in 2352 samples @00:00:30-00:00:32
13 | (121/124) Accurately ripped


==== Log checksum D4D823F3BBC58C7D86A8AF7DA907056E5EB52C7A9A948CA0062A2EC7AA184671 ====

foobar2000 1.2 / Dynamic Range Meter 1.1.1
log date: 2018-08-30 15:35:17

––––––––––––––––––––––––––––––––––––––––
Analyzed: Suzanne Vega / 99.9 F° (540 012-2)
––––––––––––––––––––––––––––––––––––––––

DR Peak RMS Duration Track
––––––––––––––––––––––––––––––––––––––––
DR11 -0.24 dB -12.65 dB 3:31 01-Rock in this pocket (Song of David)
DR10 -0.24 dB -12.26 dB 2:28 02-Blood makes noise
DR11 -0.24 dB -14.40 dB 4:41 03-In Liverpool
DR14 -0.24 dB -16.14 dB 3:16 04-99.9 F°
DR13 -3.13 dB -19.82 dB 3:18 05-Blood sings
DR11 -0.24 dB -15.28 dB 2:19 06-Fat man & dancing girl
DR12 -0.24 dB -13.88 dB 3:06 07-(If you were) In my movie
DR12 -0.24 dB -13.80 dB 2:56 08-As a child
DR13 -0.24 dB -17.32 dB 3:24 09-Bad wisdom
DR11 -0.24 dB -12.49 dB 1:55 10-When heroes go down
DR11 -0.24 dB -12.49 dB 3:27 11-As girls go
DR14 -3.39 dB -21.51 dB 3:28 12-Song of sand
DR13 -1.15 dB -18.66 dB 1:57 13-Private goes public
––––––––––––––––––––––––––––––––––––––––

Number of tracks: 13
Official DR value: DR12

Samplerate: 44100 Hz
Channels: 2
Bits per sample: 16
Bitrate: 614 kbps
Codec: FLAC
================================================================================

Suzanne Vega - 99.9 F° (1992) [Re-Up]

Suzanne Vega - 99.9 F° (1992) [Re-Up]

All thanks to original releaser - Olaf der Weisse

More interesting music in My Blog