Subcategories

Suzi Quatro - Legend: The Best Of (2017)

Posted By: SERTiL
Suzi Quatro - Legend: The Best Of (2017)

Suzi Quatro - Legend: The Best Of
Glam Rock, Classic Rock | WEB FLAC (tracks) & front cover | 78:29 min | 512 MB
Label: Chrysalis Records | Tracks: 20 | Rls.date: 2017

Remastered in 2017! Official 20-track, career-spanning compilation features "Can The Can", "Devil Gate Drive", "Stumblin' In", "48 Crash", "Michael" and more.

TRACKLIST
01. Can the Can (2017 Remaster) 03:37
02. Shine My Machine (2017 Remaster) 03:51
03. 48 Crash (2017 Remaster) 03:57
04. Skin Tight Skin (2017 Remaster) 04:22
05. Daytona Demon (2017 Remaster) 04:02
06. Devil Gate Drive (2017 Remaster) 03:48
07. The Wild One (2017 Remaster) 02:52
08. Cat Size (2017 Remaster) 04:38
09. Too Big (2017 Remaster) 03:22
10. Michael (2017 Remaster) 03:43
11. Half as Much as Me (2017 Remaster) 04:16
12. Stumblin' In (2017 Remaster) 03:59
13. If You Cant Give Me Love (2017 Remaster) 03:53
14. Suicide (2017 Remaster) 04:07
15. Wiser Than You (2017 Remaster) 03:52
16. She's in Love with You (2017 Remaster) 03:33
17. Hollywood (2017 Remaster) 03:00
18. 15 Minutes of Fame 03:51
19. Free the Butterfly 04:56
20. Dancing in the Wind 04:52

PERFORMER: auCDtect Task Manager, ver. 1.6.0 RC1 build 1.6.0.1
Copyright © 2008-2010 y-soft. All rights reserved

ANALYZER: auCDtect: CD records authenticity detector, version 0.8.2
Copyright © 2004 Oleg Berngardt. All rights reserved.
Copyright © 2004 Alexander Djourik. All rights reserved.


FILE: 20. Dancing in the Wind.flac
Size: 37445305 Hash: EAC7ACA2AEF5C8A04A8BDCD2FA74E016 Accuracy: -m0
Conclusion: CDDA 100%
Signature: 59F99F6FAAE9C08CE26ED48F504EEF1B86606DF6
FILE: 19. Free the Butterfly.flac
Size: 36650828 Hash: 7B87C8660012079FA808A7A628D59285 Accuracy: -m0
Conclusion: CDDA 100%
Signature: D23886A0FEE2BF27D802A87B7EC4A8877968A79A
FILE: 18. 15 Minutes of Fame.flac
Size: 30328998 Hash: C2376A1E59E46EB95C3ADC6C63BAEF2F Accuracy: -m0
Conclusion: CDDA 100%
Signature: 2ACA8A419C8D1E5B7648838DEE8B190739323625
FILE: 17. Hollywood (2017 Remaster).flac
Size: 20119145 Hash: 4D39AF23135CB8343FE9D7E80531D18E Accuracy: -m0
Conclusion: CDDA 100%
Signature: CE5035A40C5A2C67608205C37DF9C48592C7DAFA
FILE: 16. She's in Love with You (2017 Remaster).flac
Size: 27196642 Hash: 61F335F8A5D686E5A4330417B1B4FB64 Accuracy: -m0
Conclusion: CDDA 100%
Signature: 7091E3FFDC93A3597C63382A61707C0F49BAF986
FILE: 15. Wiser Than You (2017 Remaster).flac
Size: 25545799 Hash: 4A785762BEB47EFD9D049DC4E2BA881B Accuracy: -m0
Conclusion: CDDA 100%
Signature: D5313F78AD5DEBEC593E8F3E286C9DA3CE1D8CE9
FILE: 14. Suicide (2017 Remaster).flac
Size: 24239482 Hash: DD632D23FAA5B1E1736BE58C52FD3F19 Accuracy: -m0
Conclusion: CDDA 100%
Signature: 36B4567F25CA1DBA75E55E1A8E5E3389DD16FCBB
FILE: 13. If You Can’t Give Me Love (2017 Remaster).flac
Size: 27865001 Hash: FFA46498D58ECECE5D53C6E93C366D7F Accuracy: -m0
Conclusion: CDDA 99%
Signature: 86FC948FF261DD2A4F2EEE86B73F8F141430EC32
FILE: 12. Stumblin' In (2017 Remaster).flac
Size: 29375086 Hash: 8CB40F794C727C978B94CDA89EB977DA Accuracy: -m0
Conclusion: CDDA 100%
Signature: 33CFA6067C94F96C06832E6C02C9F31A3A783C70
FILE: 11. Half as Much as Me (2017 Remaster).flac
Size: 27759660 Hash: 039784A8CA0CE29A51D12EC68F3BD41C Accuracy: -m0
Conclusion: CDDA 99%
Signature: ED901860C3E496296674D8AF50DE2DB1BB191DC0
FILE: 10. Michael (2017 Remaster).flac
Size: 25353229 Hash: 39D28D329E4DBA5C1BF7DD2FDADD7B47 Accuracy: -m0
Conclusion: CDDA 99%
Signature: 789FF3373D13A1208290C033770D036D3603957F
FILE: 09. Too Big (2017 Remaster).flac
Size: 21250383 Hash: 34DEE3DE257C221321188408FD0261DE Accuracy: -m0
Conclusion: CDDA 99%
Signature: 55E781DC49D4A840FF89AFCF97AEA264F5C6213D
FILE: 08. Cat Size (2017 Remaster).flac
Size: 25725281 Hash: 34223EAFB8D124CF8E2E5B38C4430CEC Accuracy: -m0
Conclusion: CDDA 100%
Signature: 3F4CA747389FD4FF78656B78C05075FE80909910
FILE: 07. The Wild One (2017 Remaster).flac
Size: 20646512 Hash: 56FB8FD0B5244B54A508E5E77D776272 Accuracy: -m0
Conclusion: CDDA 100%
Signature: BD8E4EF7FECB9A4CC8C88802155F48F4AD63BA83
FILE: 06. Devil Gate Drive (2017 Remaster).flac
Size: 24915609 Hash: 0A9CA97427FBF8167BC1AF34723042B9 Accuracy: -m0
Conclusion: CDDA 100%
Signature: 3F4464E52E28C4C76B111CCEED272EBD6EF68115
FILE: 05. Daytona Demon (2017 Remaster).flac
Size: 26736396 Hash: 9CDF685B8078F23C75F499EC6C61B44E Accuracy: -m0
Conclusion: CDDA 100%
Signature: FD9224AF697A80B44FA3A56CAAFF4BAF1A0E7F94
FILE: 04. Skin Tight Skin (2017 Remaster).flac
Size: 27409269 Hash: E322D995EE32315B1C4EC637CE025EB6 Accuracy: -m0
Conclusion: CDDA 100%
Signature: CEECCFB37D31450C189F290F0EDFF0EF68E256FA
FILE: 03. 48 Crash (2017 Remaster).flac
Size: 27083259 Hash: 15AD481B60DD06DCD0353765F49CF9B2 Accuracy: -m0
Conclusion: CDDA 100%
Signature: D02ED21E3269DD4BB37EA5A5BBCE5825DBA09333
FILE: 02. Shine My Machine (2017 Remaster).flac
Size: 27530456 Hash: D33B51FB9FFF970AA834999B1EE89714 Accuracy: -m0
Conclusion: CDDA 100%
Signature: E0B15E5B4E028F7E3EDE5DBF59BDB644557032F6
FILE: 01. Can the Can (2017 Remaster).flac
Size: 23528679 Hash: CC88BDEC4C8990FD6BEBBB0116B7E2C1 Accuracy: -m0
Conclusion: CDDA 100%
Signature: F4BF3C791FA495E5F1EADB26573FF4C69614E414

foobar2000 1.3.7 / Dynamic Range Meter 1.1.1
log date: 2017-09-22 14:49:05

––––––––––––––––––––––––––––––––––––––––
Analyzed: Suzi Quatro / Legend: The Best Of
––––––––––––––––––––––––––––––––––––––––

DR Peak RMS Duration Track
––––––––––––––––––––––––––––––––––––––––
DR10 -0.05 dB -12.26 dB 3:38 01-Can the Can (2017 Remaster)
DR12 -0.05 dB -13.33 dB 3:52 02-Shine My Machine (2017 Remaster)
DR11 -0.05 dB -12.50 dB 3:57 03-48 Crash (2017 Remaster)
DR11 -0.05 dB -13.44 dB 4:23 04-Skin Tight Skin (2017 Remaster)
DR10 -0.75 dB -12.79 dB 4:03 05-Daytona Demon (2017 Remaster)
DR11 -0.05 dB -12.72 dB 3:49 06-Devil Gate Drive (2017 Remaster)
DR9 -1.63 dB -11.84 dB 2:53 07-The Wild One (2017 Remaster)
DR11 0.00 dB -14.14 dB 4:38 08-Cat Size (2017 Remaster)
DR10 -0.68 dB -12.14 dB 3:23 09-Too Big (2017 Remaster)
DR10 -0.05 dB -12.79 dB 3:43 10-Michael (2017 Remaster)
DR10 -0.60 dB -11.42 dB 4:16 11-Half as Much as Me (2017 Remaster)
DR12 -0.05 dB -13.38 dB 4:00 12-Stumblin' In (2017 Remaster)
DR11 -0.05 dB -12.22 dB 3:53 13-If You Can’t Give Me Love (2017 Remaster)
DR13 -0.11 dB -16.31 dB 4:07 14-Suicide (2017 Remaster)
DR11 -0.05 dB -12.73 dB 3:52 15-Wiser Than You (2017 Remaster)
DR9 -0.20 dB -10.13 dB 3:33 16-She's in Love with You (2017 Remaster)
DR10 -0.91 dB -12.82 dB 3:00 17-Hollywood (2017 Remaster)
DR6 -3.51 dB -10.70 dB 3:52 18-15 Minutes of Fame
DR8 -0.29 dB -9.49 dB 4:57 19-Free the Butterfly
DR7 -3.51 dB -11.99 dB 4:52 20-Dancing in the Wind
––––––––––––––––––––––––––––––––––––––––

Number of tracks: 20
Official DR value: DR10

Samplerate: 44100 Hz
Channels: 2
Bits per sample: 16
Bitrate: 1017 kbps
Codec: FLAC
================================================================================


Thanks to the Original customer.