Subcategories

Suzi Quatro - Rock Hard (1980) [1990, UK 1st Press - Document CSAP CD 102]

Posted By: jclane
Suzi Quatro - Rock Hard (1980) [1990, UK 1st Press  - Document CSAP CD 102]

Suzi Quatro - Rock Hard (1980) [1990, UK 1st Press - Document CSAP CD 102]
EAC Rip | FLAC Image + Cue + Log | Scans Included (7.2 MB) | 256 MB
MP3 CBR @320 kbps (LAME 3.99) | Joint Stereo | 98.9 MB
Document / The Connoisseur Collection Limited | CSAP CD 102 | Hard Rock | RAR 3% Recovery

Although glam had long slipped off the radar by 1981, that year found Suzi Quatro releasing one of her finest albums. With Nicky Chinn and Mike Chapman (the producers behind her biggest hits) at the controls, Quatro and her band craft a series of songs that blend the hard rock power that fueled her glam rock era hits with a new soundscape that tarts up the songs with some ear attracting new wave hooks. The tone is set by the title track, which starts the album with a blast thanks to its effective combination chugging guitar riffs, a stomping beat, and a shout-along chorus that praises the song's tough female heroine. Other hard rocking highlights include "Glad All Over," a cover of the Dave Clark Five classic that uses a backbeat reminiscent of a squad of rolling tanks on its chorus, and "Lipstick," a kiss-off to a cheating lover that pits power chords against bubblegum-styled handclaps to create a beguiling fusion of pop hooks and rock & roll muscle. Even the quieter numbers manage to rock in their own way: a good example is "Love Is Ready," a mid-tempo invitation to romance that swings with authority over some soaring guitar riffs. Although it lacks the kind of single that would have put it over the top commercially, Rock Hard is so consistent and likable that it is tough to argue with. In short, Rock Hard is a necessity and a solid listen for anyone interested in what female-oriented rock was like before the advent of grrl rockers like L7 and Hole.

by Donald A. Guarisco, Allmusic
Track Listing:

1. Rock Hard - 03:21
2. Glad All Over - 02:49
3. Love Is Ready - 03:31
4. State Of Mind - 03:01
5. Woman Cry - 03:37
6. Lipstick - 04:10
7. Hard Headed - 04:02
8. Ego In The Night - 03:37
9. Lonely Is The Hardest - 03:48
10. Lay Me Down - 03:34
11. Wish Upon Me - 02:56



Exact Audio Copy V0.99 prebeta 5 from 4. May 2009

Отчёт EAC об извлечении, выполненном 4. июля 2010, 17:03

Suzi Quatro / Rock Hard

Дисковод: HL-DT-STDVDRAM GSA-T20N Adapter: 1 ID: 0

Режим чтения : Достоверность
Использование точного потока : Да
Отключение кэша аудио : Да
Использование указателей C2 : Нет

Коррекция смещения при чтении : 667
Способность читать области Lead-in и Lead-out : Нет
Заполнение пропущенных сэмплов тишиной : Да
Удаление блоков с тишиной в начале и конце : Нет
При вычислениях CRC использовались нулевые сэмплы : Да
Интерфейс : Встроенный Win32-интерфейс для Win NT/2000

Выходной формат : Пользовательский кодировщик
Выбранный битрейт : 768 kBit/s
Качество : Высокий
Добавление ID3-тэга : Нет
Утилита сжатия : C:\Program Files\Exact Audio Copy\FLAC\FLAC.EXE
Дополнительные параметры : -8 -V %s


TOC извлечённого CD

Трек | Старт | Длительность | Начальный сектор | Конечный сектор
––––––––––––––––––––––––––––––––––-
1 | 0:00.32 | 3:21.50 | 32 | 15156
2 | 3:22.07 | 2:49.68 | 15157 | 27899
3 | 6:12.00 | 3:31.62 | 27900 | 43786
4 | 9:43.62 | 3:01.70 | 43787 | 57431
5 | 12:45.57 | 3:37.63 | 57432 | 73769
6 | 16:23.45 | 4:10.25 | 73770 | 92544
7 | 20:33.70 | 4:02.37 | 92545 | 110731
8 | 24:36.32 | 3:37.20 | 110732 | 127026
9 | 28:13.52 | 3:48.20 | 127027 | 144146
10 | 32:01.72 | 3:34.28 | 144147 | 160224
11 | 35:36.25 | 2:56.57 | 160225 | 173481


Характеристики диапазона извлечения и сообщения об ошибках

Выбранный диапазон

Имя файла D:\uTorrent.compl\Suzy Quatro - 'Rock Hard' 1980 - ( 1st Press - Document CSAP CD 102 )\Suzi Quatro - Rock Hard.wav

Пиковый уровень 99.1 %
Качество диапазона 100.0 %
CRC теста 7EEF8650
CRC копии 7EEF8650
Копирование… OK

Ошибок не произошло


AccurateRip: сводка

Трек 1 точное извлечение (доверие 3) [3B78A1D5]
Трек 2 точное извлечение (доверие 3) [C0DFF4CD]
Трек 3 точное извлечение (доверие 3) [BDC7CC50]
Трек 4 точное извлечение (доверие 3) [634D3C35]
Трек 5 точное извлечение (доверие 3) [8F37E06C]
Трек 6 точное извлечение (доверие 3) [CB51629E]
Трек 7 точное извлечение (доверие 3) [B629920E]
Трек 8 точное извлечение (доверие 3) [AC90E033]
Трек 9 точное извлечение (доверие 3) [C7D43766]
Трек 10 точное извлечение (доверие 3) [6C3DF8EB]
Трек 11 точное извлечение (доверие 3) [FFCD16A7]

Все треки извлечены точно

Конец отчёта


[CUETools log; Date: 3/28/2012 5:28:24 PM; Version: 2.1.2a]
Pregap length 00:00:32.
[CTDB TOCID: b6ItAQiCmRlr4ETTgHsqxjaJLt0-] found.
[ CTDBID ] Status
[8df1bc0c] (3/3) Accurately ripped
[AccurateRip ID: 000fa8bc-00890c71-a309090b] found.
Track [ CRC ] Status
01 [3b78a1d5] (3/3) Accurately ripped
02 [c0dff4cd] (3/3) Accurately ripped
03 [bdc7cc50] (3/3) Accurately ripped
04 [634d3c35] (3/3) Accurately ripped
05 [8f37e06c] (3/3) Accurately ripped
06 [cb51629e] (3/3) Accurately ripped
07 [b629920e] (3/3) Accurately ripped
08 [ac90e033] (3/3) Accurately ripped
09 [c7d43766] (3/3) Accurately ripped
10 [6c3df8eb] (3/3) Accurately ripped
11 [ffcd16a7] (3/3) Accurately ripped

Track Peak [ CRC32 ] [W/O NULL]
– 99.1 [7EEF8650] [501DB8BC]
01 87.1 [056042DD] [61D9D94C]
02 80.1 [B8724A8D] [7ADBEE39]
03 86.5 [8CA3EA5A] [EA6325FB]
04 90.1 [18AB8266] [5FEABF1F]
05 83.3 [9BF0A307] [3CEF0FF9]
06 83.6 [50808D0A] [69B67CFC]
07 87.2 [1D490D43] [F0982BF0]
08 92.3 [883A9DA9] [3819B4DE]
09 99.1 [14625C67] [8369E177]
10 90.0 [5A1824D7] [534D3C81]
11 74.9 [87F51DAC] [57EDFB71]

Suzi Quatro - Rock Hard (1980) [1990, UK 1st Press  - Document CSAP CD 102]

Suzi Quatro - Rock Hard (1980) [1990, UK 1st Press  - Document CSAP CD 102]


Original Released Date: 1980
CD Released Date: 1990 (Document CSAP CD 102)
Format: CD, Album
Length: 38:32


––––––––––––––––––––––––––––––––––––––––


CD Rip by kurok79

The files are interchangeable!… No Mirrors Please!!!
FILEPOST
Lossless | MP3

DEPOSITFILES
Lossless | MP3


pw: www.AvaxHome.ru