Subcategories
Tags
Language
Tags

Sweet - Fox On The Run: Rare Studio Tracks (2015)

Posted By: popsakov
Sweet - Fox On The Run: Rare Studio Tracks (2015)

Sweet - Fox On The Run: Rare Studio Tracks (2015)
EAC Rip | FLAC (Img) + Cue + Log ~ 435 Mb | MP3 CBR320 ~ 171 Mb
Full Scans | 00:59:20 | RAR 5% Recovery
Glam Rock, Classic Rock | Cleopatra Records #CLD 0002

Special limited gatefold CD packaging of this greatest hits collection from proto-glam rockers Sweet! Contains alternate mixes and rare versions of the band s biggest singles including Ballroom Blitz, Little Willy, Blockbuster! and more!

***************

Sweet - Fox On The Run: Rare Studio Tracks (2015)

Track List:

01. Ballroom Blitz [03:59]
02. Love Is Like Oxygen [06:20]
03. Little Willy [03:13]
04. Fox On The Run [03:19]
05. Action [03:28]
06. Blockbuster! [03:16]
07. Hellraiser [03:14]
08. Sweet F.A. [05:38]
09. Lost Angels [03:46]
10. Fever Of Love [04:12]
11. 4th Of July [03:51]
12. The Lies In Your Eyes [03:47]
13. Set Me Free [03:52]
14. You're Not Wrong For Loving Me [03:54]
15. Done Me Wrong Alright [03:38]

Exact Audio Copy V1.0 beta 3 from 29. August 2011

EAC extraction logfile from 9. November 2015, 13:55

Sweet / Fox On The Run - Rare Studio Tracks

Used drive : PIONEER BD-RW BDR-TD03 Adapter: 0 ID: 1

Read mode : Secure
Utilize accurate stream : Yes
Defeat audio cache : Yes
Make use of C2 pointers : No

Read offset correction : 667
Overread into Lead-In and Lead-Out : No
Fill up missing offset samples with silence : Yes
Delete leading and trailing silent blocks : No
Null samples used in CRC calculations : Yes
Used interface : Native Win32 interface for Win NT & 2000

Used output format : User Defined Encoder
Selected bitrate : 768 kBit/s
Quality : High
Add ID3 tag : No
Command line compressor : C:\Program Files (x86)\Exact Audio Copy\FLAC\FLAC.EXE
Additional command line options : -6 -V -T "ARTIST=%artist%" -T "TITLE=%title%" -T "ALBUM=%albumtitle%" -T "DATE=%year%" -T "TRACKNUMBER=%tracknr%" -T "GENRE=%genre%" -T "COMMENT=%comment%" -T "BAND=%albuminterpret%" -T "ALBUMARTIST=%albuminterpret%" -T "COMPOSER=%composer%" %haslyrics%–tag-from-file=LYRICS="%lyricsfile%"%haslyrics% -T "DISCNUMBER=%cdnumber%" -T "TOTALDISCS=%totalcds%" -T "TOTALTRACKS=%numtracks%" %hascover%–picture="%coverfile%"%hascover% %source% -o %dest%


TOC of the extracted CD

Track | Start | Length | Start sector | End sector
––––––––––––––––––––––––––––-
1 | 0:00.00 | 3:58.45 | 0 | 17894
2 | 3:58.45 | 6:19.64 | 17895 | 46383
3 | 10:18.34 | 3:12.22 | 46384 | 60805
4 | 13:30.56 | 3:18.43 | 60806 | 75698
5 | 16:49.24 | 3:27.25 | 75699 | 91248
6 | 20:16.49 | 3:15.63 | 91249 | 105936
7 | 23:32.37 | 3:13.33 | 105937 | 120444
8 | 26:45.70 | 5:37.30 | 120445 | 145749
9 | 32:23.25 | 3:45.07 | 145750 | 162631
10 | 36:08.32 | 4:11.51 | 162632 | 181507
11 | 40:20.08 | 3:50.44 | 181508 | 198801
12 | 44:10.52 | 3:46.41 | 198802 | 215792
13 | 47:57.18 | 3:51.49 | 215793 | 233166
14 | 51:48.67 | 3:53.09 | 233167 | 250650
15 | 55:42.01 | 3:37.39 | 250651 | 266964


Range status and errors

Selected range

Filename C:\Users\Deris\Desktop\…\sweetRare\Sweet - Fox On The Run - Rare Studio Tracks.wav

Peak level 100.0 %
Extraction speed 4.7 X
Range quality 100.0 %
Test CRC 25D6629E
Copy CRC 25D6629E
Copy OK

No errors occurred


AccurateRip summary

Track 1 not present in database
Track 2 not present in database
Track 3 not present in database
Track 4 not present in database
Track 5 not present in database
Track 6 not present in database
Track 7 not present in database
Track 8 not present in database
Track 9 not present in database
Track 10 not present in database
Track 11 not present in database
Track 12 not present in database
Track 13 not present in database
Track 14 not present in database
Track 15 not present in database

None of the tracks are present in the AccurateRip database

End of status report

–– CUETools DB Plugin V2.1.3

[CTDB TOCID: VDEFWICC6LW.fKGgGVz3IJUvr28-] disk not present in database, Submit result: VDEFWICC6LW.fKGgGVz3IJUvr28- has been uploaded


==== Log checksum B9E332B0EBCF1ABA3CE6529A50CD4BB327144562B9AEA6AE040CC2494126C479 ====

Sweet - Fox On The Run: Rare Studio Tracks (2015)


All thanks go to Boris1

>>> Sweet in my Blog <<<

DOWNLOAD: