Subcategories

Sweet & Lynch - Unified (2017)

Posted By: Andi_Deris
Sweet & Lynch - Unified (2017)

Sweet & Lynch - Unified (2017)
EAC Rip | FLAC: Image+Cue+Log | MP3 CBR 320 kbps | Scans
369 Mb | 117 Mb | 79 Mb | Time: 50:23
Frontiers Music SRL | FR CD 821
Christian Metal, Hard Rock

SWEET & LYNCH is centered around the talents of guitarist/vocalist Michael Sweet of heavy metal stalwarts STRYPER and iconic guitarist George Lynch (LYNCH MOB, KXM, ex-DOKKEN) along with bassist James Lomenzo (ex-MEGADETH, WHITE LION, BLACK LABEL SOCIETY) and drummer Brian Tichy (The Dead Daisies, ex-WHITESNAKE). “Unified” is the follow-up to their critical and fan acclaimed 2015 debut, “Only To Rise”, which cracked the Billboard Top 200 and came in at #6 on the Top Hard Rock Albums, #17 on Independent Albums, #18 on Top Rock Albums, and #4 on Christian Albums charts.

The combination of Sweet’s powerful, high-octane vocals, Lynch’s immediately recognizable guitar work, and Lomenzo and Tichy’s propulsive rhythm section make for an amazing musical combination. The album gives both Sweet and Lynch the opportunity to operate outside of the boundaries of their most well known work and really stretch their wings. Pummeling, traditional heavy metal combines with hook-laden melodic rock and traditional hard rock for a recipe that will satisfy the hungriest of rock fans!

An absolute must hear for fans of all of Michael Sweet and George Lynch’s previous work and of course for those who enjoyed the band’s excellent debut album!

Sweet & Lynch - Unified (2017)




Track Listing

01. Promised Land (04:14)
02. Walk (05:38)
03. Afterlife (05:06)
04. Make Your Mark (04:07)
05. Tried & True (04:15)
06. Unified (04:28)
07. Find Your Way (04:23)
08. Heart Of Fire (04:16)
09. Bridge Of Broken Lies (04:39)
10. Better Man (05:03)
11. Live To Die (04:16)

Produced by Michael Sweet

Personnel

• Michael Sweet - lead vocals, guitars
• George Lynch - lead guitars
• James LoMenzo - bass guitar
Brian Tichy - drums

*****
• Paul McNamara - keyboards

Exact Audio Copy V1.3 from 2. September 2016

EAC extraction logfile from 12. June 2018, 20:35

SWEET & LYNCH / Unified

Used drive : ASUS DRW-24D5MT Adapter: 1 ID: 0

Read mode : Secure
Utilize accurate stream : Yes
Defeat audio cache : Yes
Make use of C2 pointers : No

Read offset correction : 6
Overread into Lead-In and Lead-Out : No
Fill up missing offset samples with silence : Yes
Delete leading and trailing silent blocks : No
Null samples used in CRC calculations : Yes
Used interface : Native Win32 interface for Win NT & 2000

Used output format : User Defined Encoder
Selected bitrate : 768 kBit/s
Quality : High
Add ID3 tag : No
Command line compressor : C:\Program Files (x86)\Exact Audio Copy\FLAC\FLAC.EXE
Additional command line options : -6 -V -T "ARTIST=%artist%" -T "TITLE=%title%" -T "ALBUM=%albumtitle%" -T "DATE=%year%" -T "TRACKNUMBER=%tracknr%" -T "GENRE=%genre%" -T "COMMENT=%comment%" -T "BAND=%albuminterpret%" -T "ALBUMARTIST=%albuminterpret%" -T "COMPOSER=%composer%" %haslyrics%–tag-from-file=LYRICS="%lyricsfile%"%haslyrics% -T "DISCNUMBER=%cdnumber%" -T "TOTALDISCS=%totalcds%" -T "TOTALTRACKS=%numtracks%" %hascover%–picture="%coverfile%"%hascover% %source% -o %dest%


TOC of the extracted CD

Track | Start | Length | Start sector | End sector
––––––––––––––––––––––––––––-
1 | 0:00.00 | 4:13.34 | 0 | 19008
2 | 4:13.34 | 5:37.74 | 19009 | 44357
3 | 9:51.33 | 5:05.34 | 44358 | 67266
4 | 14:56.67 | 4:06.41 | 67267 | 85757
5 | 19:03.33 | 4:14.44 | 85758 | 104851
6 | 23:18.02 | 4:27.49 | 104852 | 124925
7 | 27:45.51 | 4:22.58 | 124926 | 144633
8 | 32:08.34 | 4:15.38 | 144634 | 163796
9 | 36:23.72 | 4:39.08 | 163797 | 184729
10 | 41:03.05 | 5:03.01 | 184730 | 207455
11 | 46:06.06 | 4:16.16 | 207456 | 226671


Range status and errors

Selected range

Filename E:\Música\EAC\Sweet Lynch\SWEET & LYNCH - Unified.wav

Peak level 98.8 %
Extraction speed 1.7 X
Range quality 100.0 %
Test CRC 97AE6416
Copy CRC 97AE6416
Copy OK

No errors occurred


AccurateRip summary

Track 1 accurately ripped (confidence 11) [E869100F] (AR v2)
Track 2 accurately ripped (confidence 11) [58D6D718] (AR v2)
Track 3 accurately ripped (confidence 11) [0B06EA81] (AR v2)
Track 4 accurately ripped (confidence 12) [4ED882C8] (AR v2)
Track 5 accurately ripped (confidence 12) [B9D1C2F6] (AR v2)
Track 6 accurately ripped (confidence 11) [49B07FF6] (AR v2)
Track 7 accurately ripped (confidence 12) [DBF26D74] (AR v2)
Track 8 accurately ripped (confidence 11) [93194046] (AR v2)
Track 9 accurately ripped (confidence 11) [9C8BE64F] (AR v2)
Track 10 accurately ripped (confidence 12) [BBA49C5B] (AR v2)
Track 11 accurately ripped (confidence 11) [CA94B695] (AR v2)

All tracks accurately ripped

End of status report

–– CUETools DB Plugin V2.1.6

[CTDB TOCID: LrdeFHOtV9BhQZwRWveKBd7JCzU-] found
Submit result: LrdeFHOtV9BhQZwRWveKBd7JCzU- has been confirmed
Track | CTDB Status
1 | (21/21) Accurately ripped
2 | (21/21) Accurately ripped
3 | (21/21) Accurately ripped
4 | (21/21) Accurately ripped
5 | (21/21) Accurately ripped
6 | (21/21) Accurately ripped
7 | (21/21) Accurately ripped
8 | (21/21) Accurately ripped
9 | (21/21) Accurately ripped
10 | (21/21) Accurately ripped
11 | (21/21) Accurately ripped


==== Log checksum 0E90BF150C0BF04534E46E35C7E9323A17944B5026BB4371EABAD637B19C990A ====


Many thanks to the original uploader: jarpomarx





Password: pass