Subcategories

Sweet & Lynch - Unified (2017) {Japanese Edition}

Posted By: popsakov
Sweet & Lynch - Unified (2017) {Japanese Edition}

Sweet & Lynch - Unified (2017) {Japanese Edition}
EAC Rip | FLAC (Img) + Cue + Log ~ 409 Mb | MP3 CBR320 ~ 131 Mb
Full Scans (JPG, 600 dpi) ~ 71 Mb | RAR 5% Recovery
Hard Rock | Avalon #MICP-11376

SWEET & LYNCH is centered around the talents of guitarist/vocalist Michael Sweet of heavy metal stalwarts STRYPER and iconic guitarist George Lynch (LYNCH MOB, KXM, ex-DOKKEN) along with bassist James Lomenzo (ex MEGADETH, WHITE LION, BLACK LABEL SOCIETY) and drummer Brian Tichy (The Dead Daisies, ex-WHITESNAKE). “Unified” is the follow-up to their critical and fan acclaimed 2015 debut, “Only To Rise”, which cracked the Billboard Top 200 and came in at #6 on the Top Hard Rock Albums, #17 on Independent Albums, #18 on Top Rock Albums, and #4 on Christian Albums charts.

The combination of Sweet’s powerful, high-octane vocals, Lynch’s immediately recognizable guitar work, and Lomenzo and Tichy’s propulsive rhythm section make for an amazing musical combination. The album gives both Sweet and Lynch the opportunity to operate outside of the boundaries of their most well known work and really stretch their wings. Pummeling, traditional heavy metal combines with hook-laden melodic rock and traditional hard rock for a recipe that will satisfy the hungriest of rock fans!

An absolute must hear for fans of all of Michael Sweet and George Lynch’s previous work and of course for those who enjoyed the band’s excellent debut album!
Sweet & Lynch - Unified (2017) {Japanese Edition}


***************

Sweet & Lynch - Unified (2017) {Japanese Edition}

Sweet & Lynch - Unified (2017) {Japanese Edition}

Track List:

01. Promised Land [4:13]
02. Walk [5:38]
03. Afterlife [5:05]
04. Make Your Mark [4:07]
05. Tried & True [4:15]
06. Unified [4:28]
07. Find Your Way [4:23]
08. Heart Of Fire [4:16]
09. Bridge Of Broken Lies [4:39]
10. Better Man [5:03]
11. Live To Die [4:18]
12. Unified (acoustic version) [4:23]

Personnel:
Michael Sweet - lead vocals, guitars
George Lynch - lead guitars
James Lomenzo - bass guitar
Brian Tichy - drums

Exact Audio Copy V1.0 beta 3 from 29. August 2011

EAC extraction logfile from 10. November 2017, 18:53

Sweet & Lynch / Unified

Used drive : SlimtypeDVD A DS8A5SH Adapter: 0 ID: 0

Read mode : Secure
Utilize accurate stream : Yes
Defeat audio cache : Yes
Make use of C2 pointers : No

Read offset correction : 6
Overread into Lead-In and Lead-Out : No
Fill up missing offset samples with silence : Yes
Delete leading and trailing silent blocks : No
Null samples used in CRC calculations : Yes
Used interface : Installed external ASPI interface

Used output format : User Defined Encoder
Selected bitrate : 320 kBit/s
Quality : High
Add ID3 tag : No
Command line compressor : C:\Program Files (x86)\Exact Audio Copy\Flac\flac.exe
Additional command line options : -V -8 -T "Date=%year%" -T "Genre=%genre%" %source%


TOC of the extracted CD

Track | Start | Length | Start sector | End sector
––––––––––––––––––––––––––––-
1 | 0:00.00 | 4:13.34 | 0 | 19008
2 | 4:13.34 | 5:38.00 | 19009 | 44358
3 | 9:51.34 | 5:05.34 | 44359 | 67267
4 | 14:56.68 | 4:06.41 | 67268 | 85758
5 | 19:03.34 | 4:14.44 | 85759 | 104852
6 | 23:18.03 | 4:27.49 | 104853 | 124926
7 | 27:45.52 | 4:22.58 | 124927 | 144634
8 | 32:08.35 | 4:15.38 | 144635 | 163797
9 | 36:23.73 | 4:39.08 | 163798 | 184730
10 | 41:03.06 | 5:03.01 | 184731 | 207456
11 | 46:06.07 | 4:18.15 | 207457 | 226821
12 | 50:24.22 | 4:23.13 | 226822 | 246559


Range status and errors

Selected range

Filename D:\My Music\Sweet & Lynch - 2017 Unified\Sweet & Lynch - Unified.wav

Peak level 98.8 %
Extraction speed 1.8 X
Range quality 99.9 %
Test CRC 3C330E61
Copy CRC 3C330E61
Copy OK

No errors occurred


AccurateRip summary

Track 1 not present in database
Track 2 not present in database
Track 3 not present in database
Track 4 not present in database
Track 5 not present in database
Track 6 not present in database
Track 7 not present in database
Track 8 not present in database
Track 9 not present in database
Track 10 not present in database
Track 11 not present in database
Track 12 not present in database

None of the tracks are present in the AccurateRip database

End of status report

==== Log checksum 0D5DFF7338094902A44B83A6012B81039AACBAEB1908F5C2EB149D7B610E87BB ====

foobar2000 1.3.16 / Dynamic Range Meter 1.1.1
log date: 2017-11-10 21:33:42

––––––––––––––––––––––––––––––––––––––––
Analyzed: Sweet & Lynch / Unified
––––––––––––––––––––––––––––––––––––––––

DR Peak RMS Duration Track
––––––––––––––––––––––––––––––––––––––––
DR7 -0.10 dB -8.26 dB 4:13 01-Promised Land
DR7 -0.10 dB -8.94 dB 5:38 02-Walk
DR7 -0.10 dB -9.17 dB 5:05 03-Afterlife
DR6 -0.10 dB -7.88 dB 4:07 04-Make Your Mark
DR7 -0.10 dB -9.41 dB 4:15 05-Tried & True
DR8 -0.10 dB -9.97 dB 4:28 06-Unified
DR7 -0.10 dB -8.90 dB 4:23 07-Find Your Way
DR8 -0.10 dB -9.74 dB 4:16 08-Heart Of Fire
DR8 -0.10 dB -9.84 dB 4:39 09-Bridge Of Broken Lies
DR8 -0.10 dB -10.12 dB 5:03 10-Better Man
DR7 -0.10 dB -9.50 dB 4:18 11-Live To Die
DR8 -0.10 dB -9.00 dB 4:23 12-Unified (acoustic version)
––––––––––––––––––––––––––––––––––––––––

Number of tracks: 12
Official DR value: DR7

Samplerate: 44100 Hz
Channels: 2
Bits per sample: 16
Bitrate: 994 kbps
Codec: FLAC
================================================================================

[CUETools log; Date: 10.11.2017 21:33:52; Version: 2.1.5]
[CTDB TOCID: WyVGUsdY.OIRPBBlpdDRwqTNtqE-] found.
Track | CTDB Status
1 | (1/1) Accurately ripped
2 | (1/1) Accurately ripped
3 | (1/1) Accurately ripped
4 | (1/1) Accurately ripped
5 | (1/1) Accurately ripped
6 | (1/1) Accurately ripped
7 | (1/1) Accurately ripped
8 | (1/1) Accurately ripped
9 | (1/1) Accurately ripped
10 | (1/1) Accurately ripped
11 | (1/1) Accurately ripped
12 | (1/1) Accurately ripped
[AccurateRip ID: 0018b8d2-00e5cd59-ac0cd70c] disk not present in database.

Track Peak [ CRC32 ] [W/O NULL] [ LOG ]
– 98,8 [3C330E61] [36D5D9F6] CRC32
01 98,8 [3A6AF7EC] [23C45326]
02 98,8 [14A9FE3C] [E063493B]
03 98,8 [DCF2376F] [E7418BFA]
04 98,8 [4D554BC8] [C86E708A]
05 98,8 [006E6307] [A6060D22]
06 98,8 [117E4C95] [2162864D]
07 98,8 [BC795963] [DAC406EF]
08 98,8 [D2C44A99] [E1AE9D43]
09 98,8 [6B39EFE2] [DBAA26E5]
10 98,8 [DA71BDDE] [049BA6B5]
11 98,8 [F8244CF3] [38B788B2]
12 98,8 [10C857CD] [C78AF690]

Sweet & Lynch - Unified (2017) {Japanese Edition}

All thanks go to kolushew

>>> My Blog <<<

Download from icerbox.com: