Subcategories
Tags
Language
Tags

Swingrowers - Hits & Remixes (2017) {Japanese Edition}

Posted By: popsakov
Swingrowers - Hits & Remixes (2017) {Japanese Edition}

Swingrowers - Hits & Remixes (2017) {Japanese Edition}
EAC Rip | FLAC (Img) + Cue + Log ~ 481 Mb | MP3 CBR320 ~ 181 Mb
Full Scans | 00:59:48 | RAR 5% Recovery
Electro Swing, Nu Jazz, Dance | Rambling Records #RBCP-3205

Swingrowers are an accomplished four-piece band from Palermo, Sicily. Made up of Loredana Grimaudo (singer, songwriter), Roberto Costa aka Pisk (DJ, producer), Alessio Costagliola (guitarist, composer), and Ciro Pusateri (saxophonist, composer). The band fuse a multitude of genres from Jazz to hip-hop, electronica to gypsy-swing, and have seen (or heard!) their sound has steadily evolved since their debut into unique electro swing and vintage-inspired pop. They are noted for their irreverent style, which blends the freshness of dance music, with the warm influences of swing from the 20s to 50s. With three albums out, a strong set of catchy singles, and a powerful live show, the band is one of the most long lived and sought after in the electro-swing and retro scene. They are signed to Freshly Squeezed Music – a Brighton (UK) based independent record label and music publisher. After touring North America, Canada, Asia, Europe and Japan (including two sold out headline shows at Blue Note Tokyo) with the likes of Caravan Palace and Parov Stelar, the band are relentless with a hectic live schedule whilst working in the studio simultaneously.

***************

Track List:

01. Pump Up The Jam (feat. The Lost Fingers) [3:50]
02. Kiawami (Skeewiff remix) [4:41]
03. The Queen of Swing (feat. Gypsy Hill) [4:19]
04. Midnight [3:43]
05. Butterfly (Original Mix) [3:40]
06. Mr. Sandman [3:58]
07. Baby Lone [3:45]
08. That's Right! (Jamie Berry Remix) [3:39]
09. Frank [4:21]
10. Django (feat. Too Many T's) [3:43]
11. Chiovi [3:35]
12. Stay Swing [4:32]
13. Butterfly (Phibes Remix) [3:58]
14. Enjoy the Moment (Bart & Baker Remix) [3:36]
15. Via con me (Extra medium Remix) [4:36]

Exact Audio Copy V1.3 from 2. September 2016

Отчёт EAC об извлечении, выполненном 2. апреля 2021, 8:08

Swingrowers / Hits & Remixes

Дисковод: PLEXTOR DVDR PX-755A Adapter: 1 ID: 1

Режим чтения : Достоверность
Использование точного потока : Да
Отключение кэша аудио : Да
Использование указателей C2 : Нет

Коррекция смещения при чтении : 30
Способность читать области Lead-in и Lead-out : Нет
Заполнение пропущенных сэмплов тишиной : Да
Удаление блоков с тишиной в начале и конце : Нет
При вычислениях CRC использовались нулевые сэмплы : Да
Интерфейс : Встроенный Win32-интерфейс для Win NT/2000

Выходной формат : Пользовательский кодировщик
Выбранный битрейт : 128 kBit/s
Качество : Высокий
Добавление ID3-тега : Нет
Утилита сжатия : C:\Program Files (x86)\Exact Audio Copy\Flac\flac.exe
Дополнительные параметры : -V -8 -T "Date=%year%" -T "Genre=%genre%" %source%


TOC извлечённого CD

Трек | Старт | Длительность | Начальный сектор | Конечный сектор
––––––––––––––––––––––––––––––––––-
1 | 0:00.00 | 3:49.14 | 0 | 17188
2 | 3:49.14 | 4:40.08 | 17189 | 38196
3 | 8:29.22 | 4:18.02 | 38197 | 57548
4 | 12:47.24 | 3:42.02 | 57549 | 74200
5 | 16:29.26 | 3:39.33 | 74201 | 90658
6 | 20:08.59 | 3:57.59 | 90659 | 108492
7 | 24:06.43 | 3:44.73 | 108493 | 125365
8 | 27:51.41 | 3:38.13 | 125366 | 141728
9 | 31:29.54 | 4:20.38 | 141729 | 161266
10 | 35:50.17 | 3:42.32 | 161267 | 177948
11 | 39:32.49 | 3:34.21 | 177949 | 194019
12 | 43:06.70 | 4:31.49 | 194020 | 214393
13 | 47:38.44 | 3:57.65 | 214394 | 232233
14 | 51:36.34 | 3:35.56 | 232234 | 248414
15 | 55:12.15 | 4:35.10 | 248415 | 269049


Характеристики диапазона извлечения и сообщения об ошибках

Выбранный диапазон

Имя файла D:\РАЗДАЧА\Swingrowers - Hits & Remixes - 2017 [Japan]\Swingrowers - Hits & Remixes.wav

Пиковый уровень 100.0 %
Скорость извлечения 8.4 X
Качество диапазона 100.0 %
CRC теста BE20FF0A
CRC копии BE20FF0A
Копирование… OK

Ошибок не произошло


AccurateRip: сводка

Трек 1 : извлечено точно (доверие 1) [B45C04EE] (AR v2)
Трек 2 : извлечено точно (доверие 1) [00D80E2A] (AR v2)
Трек 3 : извлечено точно (доверие 1) [72A3F55D] (AR v2)
Трек 4 : извлечено точно (доверие 1) [417D5DA4] (AR v2)
Трек 5 : извлечено точно (доверие 1) [986FDB2A] (AR v2)
Трек 6 : извлечено точно (доверие 1) [00D74F64] (AR v2)
Трек 7 : извлечено точно (доверие 1) [DD28C91B] (AR v2)
Трек 8 : извлечено точно (доверие 1) [EA8F1BA1] (AR v2)
Трек 9 : извлечено точно (доверие 1) [935686DC] (AR v2)
Трек 10 : извлечено точно (доверие 1) [7547E414] (AR v2)
Трек 11 : извлечено точно (доверие 1) [8E0F4920] (AR v2)
Трек 12 : извлечено точно (доверие 1) [A5C0328A] (AR v2)
Трек 13 : извлечено точно (доверие 1) [C05E7055] (AR v2)
Трек 14 : извлечено точно (доверие 1) [B101E9EE] (AR v2)
Трек 15 : извлечено точно (доверие 1) [4A7C849B] (AR v2)

Все треки извлечены точно

Конец отчёта

–– CUETools DB Plugin V2.1.6

[CTDB TOCID: VPvr8c.sfqd28KLvZRwWwepQfKk-] found
Submit result: VPvr8c.sfqd28KLvZRwWwepQfKk- has been confirmed
Track | CTDB Status
1 | (3/3) Accurately ripped
2 | (3/3) Accurately ripped
3 | (3/3) Accurately ripped
4 | (3/3) Accurately ripped
5 | (3/3) Accurately ripped
6 | (3/3) Accurately ripped
7 | (3/3) Accurately ripped
8 | (3/3) Accurately ripped
9 | (3/3) Accurately ripped
10 | (3/3) Accurately ripped
11 | (3/3) Accurately ripped
12 | (3/3) Accurately ripped
13 | (3/3) Accurately ripped
14 | (3/3) Accurately ripped
15 | (3/3) Accurately ripped


==== Контрольная сумма отчёта D231565FA7839DE493979C533CE17B3885EC8D410B0CD01945429131B6CA50CC ====

All thanks go to pishin

>>> Swingrowers in my Blog <<<

DOWNLOAD: