Syrinx - 2 Studio Albums (2003-2008)

Posted By: gribovar
Syrinx - 2 Studio Albums (2003-2008)

Syrinx - 2 Studio Albums (2003-2008)
EAC Rip | FLAC (image+.cue+log) - 703 MB | MP3 CBR 320 kbps (LAME 3.93) - 244 MB | Covers - 39 MB
Genre: Instrumental Progressive Rock | RAR 3% Rec. | Label: Self-released

Keeping their anonymity, Syrinx are comprised of four musicians playing acoustic guitar, bass guitar, keyboards, drums and occasional flute. Syrinx normally is a nymph who works in the world of sound creation. As musicians, they are obviously influenced by all sort of music. The musical construction of Syrinx is called "Metamorphic Music" lending within a different texture to the complex arrangements. An excellent instrumental band between Priam and Taal, but more melodic.

Syrinx - 2 Studio Albums (2003-2008)

Syrinx - Reification (2003)
EAC Rip | FLAC (image+.cue+log) - 381 MB | MP3 CBR 320 kbps (LAME 3.93) - 129 MB | Covers - 20 MB
Genre: Instrumental Progressive Rock | RAR 3% Rec. | Label: Self-released

Tracklist:
01. Reification
02. Emanescence
03. Le Vingtième Cercle
04. Orbis Ubique
05. L'Hypostase des Archontes

Total time: 54:52

Exact Audio Copy V0.99 prebeta 4 from 23. January 2008

Отчёт EAC об извлечении, выполненном 5. января 2011, 13:50

SYRINX / Reification

Дисковод: TSSTcorpCD/DVDW SH-S183A Adapter: 4 ID: 1

Режим чтения : Достоверность
Использование точного потока : Да
Отключение кэша аудио : Да
Использование указателей C2 : Нет

Коррекция смещения при чтении : 6
Способность читать области Lead-in и Lead-out : Нет
Заполнение пропущенных сэмплов тишиной : Да
Удаление блоков с тишиной в начале и конце : Нет
При вычислениях CRC использовались нулевые сэмплы : Да
Интерфейс : Установленный внешний ASPI-интерфейс

Выходной формат : Внутренние WAV-операции
Формат сэмплов : 44.100 Гц; 16 бит; стерео


TOC извлечённого CD

Трек | Старт | Длительность | Начальный сектор | Конечный сектор
––––––––––––––––––––––––––––––––––-
1 | 0:00.00 | 16:57.34 | 0 | 76308
2 | 16:57.34 | 8:35.48 | 76309 | 114981
3 | 25:33.07 | 7:34.52 | 114982 | 149083
4 | 33:07.59 | 14:43.56 | 149084 | 215364
5 | 47:51.40 | 7:00.50 | 215365 | 246914


Характеристики диапазона извлечения и сообщения об ошибках

Выбранный диапазон

Имя файла D:\TEMP\SYRINX - 2003 - Reification.wav

Пиковый уровень 98.0 %
Качество диапазона 100.0 %
CRC теста E45A2F52
CRC копии E45A2F52
Копирование… OK

Ошибок не произошло


AccurateRip: сводка

Трек 1 точное извлечение (доверие 4) [A536FDD5]
Трек 2 точное извлечение (доверие 4) [955104A7]
Трек 3 точное извлечение (доверие 4) [906157D3]
Трек 4 точное извлечение (доверие 4) [D408FBE6]
Трек 5 точное извлечение (доверие 4) [0B491443]

Все треки извлечены точно

Конец отчёта

[CUETools log; Date: 11.08.2017 18:33:15; Version: 2.1.4]
[CTDB TOCID: UcOuFRT6dqssiKVHH_Os7U.qmwo-] found.
Track | CTDB Status
1 | (1/1) Accurately ripped
2 | (1/1) Accurately ripped
3 | (1/1) Accurately ripped
4 | (1/1) Accurately ripped
5 | (1/1) Accurately ripped
[AccurateRip ID: 000c3f5f-0037ba78-4a0cdc05] found.
Track [ CRC | V2 ] Status
01 [a536fdd5|499be90b] (5+0/5) Accurately ripped
02 [955104a7|b5fee1ea] (5+0/5) Accurately ripped
03 [906157d3|8305b036] (5+0/5) Accurately ripped
04 [d408fbe6|b140eb4d] (5+0/5) Accurately ripped
05 [0b491443|16da9411] (5+0/5) Accurately ripped

Track Peak [ CRC32 ] [W/O NULL] [ LOG ]
– 98,0 [E45A2F52] [E7200881] CRC32
01 97,7 [933A627E] [08BEC3AD]
02 97,9 [68D39169] [28A3CCF6]
03 98,0 [84B29C45] [08C5B9D6]
04 97,9 [D076A1FB] [70B8E772]
05 97,9 [B610D2DC] [DAF7A9FD]

Syrinx - 2 Studio Albums (2003-2008)

Syrinx - Qualia (2008)
EAC Rip | FLAC (image+.cue+log) - 322 MB | MP3 CBR 320 kbps (LAME 3.93) - 115 MB | Covers - 19 MB
Genre: Instrumental Progressive Rock | RAR 3% Rec. | Label: Self-released

Tracklist:
01. Liber Nonacris
02. Acheiropoiètes
03. Le Grand Dieu Pan
04. Le Vingt-et-Unième Cercle

Total time: 48:50

Exact Audio Copy V0.99 prebeta 4 from 23. January 2008

Отчёт EAC об извлечении, выполненном 16. декабря 2010, 12:10

SYRINX / Qualia

Дисковод: TSSTcorpCD/DVDW SH-S183A Adapter: 4 ID: 1

Режим чтения : Достоверность
Использование точного потока : Да
Отключение кэша аудио : Да
Использование указателей C2 : Нет

Коррекция смещения при чтении : 6
Способность читать области Lead-in и Lead-out : Нет
Заполнение пропущенных сэмплов тишиной : Да
Удаление блоков с тишиной в начале и конце : Нет
При вычислениях CRC использовались нулевые сэмплы : Да
Интерфейс : Установленный внешний ASPI-интерфейс

Выходной формат : Внутренние WAV-операции
Формат сэмплов : 44.100 Гц; 16 бит; стерео


TOC извлечённого CD

Трек | Старт | Длительность | Начальный сектор | Конечный сектор
––––––––––––––––––––––––––––––––––-
1 | 0:00.00 | 19:38.71 | 0 | 88420
2 | 19:38.71 | 8:40.30 | 88421 | 127450
3 | 28:19.26 | 14:45.47 | 127451 | 193872
4 | 43:04.73 | 5:45.28 | 193873 | 219775


Характеристики диапазона извлечения и сообщения об ошибках

Выбранный диапазон

Имя файла D:\TEMP\SYRINX - 2008 - Qualia.wav

Пиковый уровень 97.7 %
Качество диапазона 100.0 %
CRC теста A1B875E5
CRC копии A1B875E5
Копирование… OK

Ошибок не произошло


AccurateRip: сводка

Трек 1 точное извлечение (доверие 3) [C5365329]
Трек 2 точное извлечение (доверие 3) [47C7A4DD]
Трек 3 точное извлечение (доверие 3) [E26ED4C4]
Трек 4 точное извлечение (доверие 3) [C7208F8B]

Все треки извлечены точно

Конец отчёта

[CUETools log; Date: 11.08.2017 18:35:36; Version: 2.1.4]
[CTDB TOCID: JGQKBt7.C.yiojAr.QNAl2ZCKeE-] found.
Track | CTDB Status
1 | (2/2) Accurately ripped
2 | (2/2) Accurately ripped
3 | (2/2) Accurately ripped
4 | (2/2) Accurately ripped
[AccurateRip ID: 00099b11-00252220-2a0b7204] found.
Track [ CRC | V2 ] Status
01 [c5365329|42755069] (5+2/7) Accurately ripped
02 [47c7a4dd|51b43a9c] (5+2/7) Accurately ripped
03 [e26ed4c4|e4500ce2] (5+2/7) Accurately ripped
04 [c7208f8b|8ef83b7d] (5+2/7) Accurately ripped

Track Peak [ CRC32 ] [W/O NULL] [ LOG ]
– 97,7 [A1B875E5] [19C1AF6D] CRC32
01 97,7 [E96AEC9F] [31706F81]
02 97,7 [3BC41847] [F5EF0313]
03 97,7 [ED894BE9] [EE03F091]
04 97,7 [A692E469] [6ADDCC9E]

Thanks to spAceLover