Subcategories

T. Rex - T. Rex (1970) [2CD, Deluxe Edition]

Posted By: v3122
T. Rex - T. Rex (1970) [2CD, Deluxe Edition]

T. Rex - T. Rex (1970)
EAC | Flac(Image) + Cue + Log & MP3 CBR 320Kbps
2014 | Polydor, 534 732-2 | ~ 612 or 279 Mb | Scans(png) -> 355 Mb
Rock / Glam / Folk Rock / Psychedelic Rock

Tyrannosaurus Rex's transformation from oracles of U.K. hippie culture to boogie-friendly rock stars began with the album A Beard of Stars, released in early 1970 when the band picked up electric instruments, and by the time the year was out, Marc Bolan had pared their name down to the more user-friendly T. Rex and dropped their first album with the new moniker. Oddly enough, while the songs on T. Rex bear a much stronger melodic and lyrical resemblance to what would make the band famous on Electric Warrior in 1971, the tone of the album is a bit more pastoral than A Beard of Stars; on most of the tunes, the electric guitars are more successfully integrated into the arrangements so they lack the jarring immediacy of "Elemental Children" or "Pavilions of the Sun," and Mickey Finn still wasn't using a full drum kit, so the tunes don't quite have the kick of a full-on rock band. But Bolan himself sounds like he's ready for his close-up, as his vocals – mannered yet quietly passionate and full of belief – suggest the glam hero he would soon become, and numbers like "Beltrane Walk," "Is It Love," and "Diamond Meadows" (with its wink-and-nudge refrain "Hey, let's do it like we're friends") are just a few paces away from the swaggering sound that would make him the U.K.'s biggest star. If Bolan was reaching for the big time with T. Rex, he also sounds like he was letting out the rock star that had always lurked within him, and there isn't a moment here that doesn't sound like he's singing from his heart and soul. T. Rex is the quiet before the storm of Electric Warrior, and it retains a loopy energy and easy charm that makes it one of Bolan's watershed works.

by Mark Deming, AMG

T. Rex - T. Rex (1970):

T. Rex - T. Rex (1970) [2CD, Deluxe Edition]

Tracklist CD1:

01. The Children Of Rarn 00:53
02. Jewel 02:46
03. The Visit 01:54
04. Childe 01:40
05. The Time Of Love Is Now 02:40
06. Diamond Meadows 01:58
07. Root Of Star 02:31
08. Beltane Walk 02:26
09. Is It Love? 02:33
10. One Inch Rock 02:25
11. Summer Deep 01:43
12. Seagull Woman 02:18
13. Suneye 02:05
14. The Wizard 08:50
15. The Children Of Rarn 00:39

Bonus Tracks:
16. Ride A White Swan (Single A-Side) 02:14
17. Summertime Blues (Single B-Side) 02:45
18. Jewel (BBC Radio One, Top Gear) 03:33
19. Woodland Bop Medley (BBC Radio One - In Concert) 06:28
20. Beltane Walk (Backing Track, BBC Radio One Club) 02:30
21. Summertime Blues (BBC Radio One, DLT Show) 03:34

Exact Audio Copy V1.0 beta 4 from 7. December 2014

EAC extraction logfile from 21. March 2015, 11:17

T. Rex / T. Rex CD1

Used drive : PLEXTOR BD-R PX-B950SA Adapter: 1 ID: 1

Read mode : Secure
Utilize accurate stream : Yes
Defeat audio cache : Yes
Make use of C2 pointers : No

Read offset correction : 6
Overread into Lead-In and Lead-Out : No
Fill up missing offset samples with silence : Yes
Delete leading and trailing silent blocks : No
Null samples used in CRC calculations : Yes
Used interface : Native Win32 interface for Win NT & 2000

Used output format : Internal WAV Routines
Sample format : 44.100 Hz; 16 Bit; Stereo


TOC of the extracted CD

Track | Start | Length | Start sector | End sector
––––––––––––––––––––––––––––-
1 | 0:00.00 | 0:53.60 | 0 | 4034
2 | 0:53.60 | 2:46.21 | 4035 | 16505
3 | 3:40.06 | 1:54.51 | 16506 | 25106
4 | 5:34.57 | 1:40.08 | 25107 | 32614
5 | 7:14.65 | 2:40.43 | 32615 | 44657
6 | 9:55.33 | 1:58.52 | 44658 | 53559
7 | 11:54.10 | 2:31.17 | 53560 | 64901
8 | 14:25.27 | 2:26.69 | 64902 | 75920
9 | 16:52.21 | 2:33.49 | 75921 | 87444
10 | 19:25.70 | 2:25.37 | 87445 | 98356
11 | 21:51.32 | 1:43.00 | 98357 | 106081
12 | 23:34.32 | 2:18.41 | 106082 | 116472
13 | 25:52.73 | 2:05.15 | 116473 | 125862
14 | 27:58.13 | 8:50.18 | 125863 | 165630
15 | 36:48.31 | 0:39.12 | 165631 | 168567
16 | 37:27.43 | 2:14.10 | 168568 | 178627
17 | 39:41.53 | 2:45.43 | 178628 | 191045
18 | 42:27.21 | 3:33.15 | 191046 | 207035
19 | 46:00.36 | 6:28.65 | 207036 | 236200
20 | 52:29.26 | 2:30.00 | 236201 | 247450
21 | 54:59.26 | 3:34.56 | 247451 | 263556


Range status and errors

Selected range

Filename C:\Users\Meijin\Desktop\ALLexxess\T. Rex\1970 T. Rex (2CD Deluxe Edition Polydor Records 2014)\CD1\T. Rex - T. Rex CD1.wav

Peak level 99.9 %
Extraction speed 7.4 X
Range quality 100.0 %
Test CRC E2C0D6E1
Copy CRC E2C0D6E1
Copy OK

No errors occurred


AccurateRip summary

Track 1 accurately ripped (confidence 9) [7DE0A08C] (AR v2)
Track 2 accurately ripped (confidence 9) [F439134B] (AR v2)
Track 3 accurately ripped (confidence 9) [A0239781] (AR v2)
Track 4 accurately ripped (confidence 9) [6D55BFDB] (AR v2)
Track 5 accurately ripped (confidence 9) [593DE09A] (AR v2)
Track 6 accurately ripped (confidence 9) [9FBEF901] (AR v2)
Track 7 accurately ripped (confidence 9) [A7737981] (AR v2)
Track 8 accurately ripped (confidence 9) [B4DA08EB] (AR v2)
Track 9 accurately ripped (confidence 9) [9539841E] (AR v2)
Track 10 accurately ripped (confidence 9) [69C50F68] (AR v2)
Track 11 accurately ripped (confidence 9) [47A0566A] (AR v2)
Track 12 accurately ripped (confidence 9) [AF332FE8] (AR v2)
Track 13 accurately ripped (confidence 9) [9D36E3E3] (AR v2)
Track 14 accurately ripped (confidence 9) [05CF7571] (AR v2)
Track 15 accurately ripped (confidence 9) [52FCE51E] (AR v2)
Track 16 accurately ripped (confidence 9) [D8C521C7] (AR v2)
Track 17 accurately ripped (confidence 9) [9A869745] (AR v2)
Track 18 accurately ripped (confidence 9) [DE106375] (AR v2)
Track 19 accurately ripped (confidence 9) [490AED50] (AR v2)
Track 20 accurately ripped (confidence 9) [FCCB5A14] (AR v2)
Track 21 accurately ripped (confidence 9) [1869EE9B] (AR v2)

All tracks accurately ripped

End of status report

–– CUETools DB Plugin V2.1.4

[CTDB TOCID: VtBwjaC1P5OXJYy3wwofZnh0Bd0-] found
Submit result: VtBwjaC1P5OXJYy3wwofZnh0Bd0- has been confirmed
Track | CTDB Status
1 | (9/9) Accurately ripped
2 | (9/9) Accurately ripped
3 | (9/9) Accurately ripped
4 | (9/9) Accurately ripped
5 | (9/9) Accurately ripped
6 | (9/9) Accurately ripped
7 | (9/9) Accurately ripped
8 | (9/9) Accurately ripped
9 | (9/9) Accurately ripped
10 | (9/9) Accurately ripped
11 | (9/9) Accurately ripped
12 | (9/9) Accurately ripped
13 | (9/9) Accurately ripped
14 | (9/9) Accurately ripped
15 | (9/9) Accurately ripped
16 | (9/9) Accurately ripped
17 | (9/9) Accurately ripped
18 | (9/9) Accurately ripped
19 | (9/9) Accurately ripped
20 | (9/9) Accurately ripped
21 | (9/9) Accurately ripped


==== Log checksum 3646302FF794D22E277C02E2CF0BB546647493C9ADB523CF601CD5AC2B82F8C2 ====

foobar2000 1.2.9 / Dynamic Range Meter 1.1.1
log date: 2015-04-10 20:03:01

––––––––––––––––––––––––––––––––––––––––
Analyzed: T. Rex / T. Rex CD1
––––––––––––––––––––––––––––––––––––––––

DR Peak RMS Duration Track
––––––––––––––––––––––––––––––––––––––––
DR9 -0.62 dB -13.15 dB 0:54 01-The Children Of Rarn
DR10 -0.01 dB -11.83 dB 2:46 02-Jewel
DR11 -0.01 dB -12.85 dB 1:55 03-The Visit
DR10 -0.01 dB -12.76 dB 1:40 04-Childe
DR13 -0.01 dB -15.23 dB 2:41 05-The Time Of Love Is Now
DR8 -0.01 dB -10.74 dB 1:59 06-Diamond Meadows
DR10 -0.01 dB -12.68 dB 2:31 07-Root Of Star
DR11 -0.01 dB -12.01 dB 2:27 08-Beltane Walk
DR11 -0.01 dB -12.89 dB 2:34 09-Is It Love ?
DR11 -0.01 dB -12.11 dB 2:25 10-One Inch Rock
DR10 -0.01 dB -11.40 dB 1:43 11-Summer Deep
DR11 -0.01 dB -12.32 dB 2:19 12-Seagull Woman
DR11 -0.01 dB -13.26 dB 2:05 13-Is It Level?
DR9 -0.01 dB -11.52 dB 8:50 14-The Wizard
DR8 -0.01 dB -10.08 dB 0:39 15-The Children Of Rarn
DR8 -0.01 dB -9.16 dB 2:14 16-Ride A White Swan (Single A-Side) / Bonus Track
DR8 -0.01 dB -9.46 dB 2:46 17-Summertime Blues (Single B-Side) / Bonus Track
DR7 -0.01 dB -7.62 dB 3:33 18-Jewel (BBC Radio One, Top Gear) / Bonus Track
DR7 -0.01 dB -8.78 dB 6:29 19-Woodland Bop Medley (BBC Radio One - In Concert) / Bonus Track
DR7 -0.01 dB -9.11 dB 2:30 20-Beltane Walk (Backing Track, BBC Radio One Club) / Bonus Track
DR5 -0.01 dB -6.02 dB 3:35 21-Summertime Blues (BBC Radio One, DLT Show) / Bonus Track
––––––––––––––––––––––––––––––––––––––––

Number of tracks: 21
Official DR value: DR9

Samplerate: 44100 Hz
Channels: 2
Bits per sample: 16
Bitrate: 816 kbps
Codec: FLAC

[CUETools log; Date: 10.04.2015 20:03:13; Version: 2.1.4]
[CTDB TOCID: VtBwjaC1P5OXJYy3wwofZnh0Bd0-] found.
Track | CTDB Status
1 | (10/10) Accurately ripped
2 | (10/10) Accurately ripped
3 | (10/10) Accurately ripped
4 | (10/10) Accurately ripped
5 | (10/10) Accurately ripped
6 | (10/10) Accurately ripped
7 | (10/10) Accurately ripped
8 | (10/10) Accurately ripped
9 | (10/10) Accurately ripped
10 | (10/10) Accurately ripped
11 | (10/10) Accurately ripped
12 | (10/10) Accurately ripped
13 | (10/10) Accurately ripped
14 | (10/10) Accurately ripped
15 | (10/10) Accurately ripped
16 | (10/10) Accurately ripped
17 | (10/10) Accurately ripped
18 | (10/10) Accurately ripped
19 | (10/10) Accurately ripped
20 | (10/10) Accurately ripped
21 | (10/10) Accurately ripped
[AccurateRip ID: 00264b4a-026211e7-070dba15] found.
Track [ CRC | V2 ] Status
01 [313bce49|7de0a08c] (00+10/10) Accurately ripped
02 [bdc37477|f439134b] (00+10/10) Accurately ripped
03 [9f499232|a0239781] (00+10/10) Accurately ripped
04 [e2a560c3|6d55bfdb] (00+10/10) Accurately ripped
05 [c91656b7|593de09a] (00+10/10) Accurately ripped
06 [153818d8|9fbef901] (00+10/10) Accurately ripped
07 [0d72e0f1|a7737981] (00+10/10) Accurately ripped
08 [e11961c7|b4da08eb] (00+10/10) Accurately ripped
09 [217a39b9|9539841e] (00+10/10) Accurately ripped
10 [37d7ab8f|69c50f68] (00+10/10) Accurately ripped
11 [f100462b|47a0566a] (00+10/10) Accurately ripped
12 [84cfadaf|af332fe8] (00+10/10) Accurately ripped
13 [d77e44ad|9d36e3e3] (00+10/10) Accurately ripped
14 [27dec2a4|05cf7571] (00+10/10) Accurately ripped
15 [3b650852|52fce51e] (00+10/10) Accurately ripped
16 [1fd728c9|d8c521c7] (00+10/10) Accurately ripped
17 [8cf4cbfc|9a869745] (00+10/10) Accurately ripped
18 [ef0fbea0|de106375] (00+10/10) Accurately ripped
19 [47086e38|490aed50] (00+10/10) Accurately ripped
20 [0cea3d36|fccb5a14] (00+10/10) Accurately ripped
21 [2588bb1e|1869ee9b] (00+10/10) Accurately ripped

Track Peak [ CRC32 ] [W/O NULL] [ LOG ]
– 99,9 [E2C0D6E1] [5F0039C0] CRC32
01 93,0 [A1BADE3D] [F9328F45]
02 99,9 [F3B6A8F3] [3A802B0C]
03 99,9 [ABB701D6] [15ABCC82]
04 99,9 [F84AB9E7] [D4E94CF8]
05 99,9 [86BA68FB] [45EC3BA9]
06 99,9 [06A05771] [72973DE9]
07 99,9 [9E06B00A] [4D08AA1B]
08 99,9 [3CA14D3D] [FBA6F92A]
09 99,9 [FCE53EE6] [CCA531F1]
10 99,9 [A7187D41] [7BCBCCC0]
11 99,9 [73DDFD51] [C3623503]
12 99,9 [0B22CA04] [A81E2278]
13 99,9 [DA5F8569] [2135FA4A]
14 99,9 [F397C159] [FBFCEE79]
15 99,9 [1B1955F9] [41326347]
16 99,9 [0DCBE217] [37BECD97]
17 99,9 [69EEFB47] [CB6AE7BA]
18 99,9 [C327EC10] [A4A9563B]
19 99,9 [0965210B] [52C9F2C5]
20 99,9 [92885086] [35032B41]
21 99,9 [669A7938] [B71C00D9]

T. Rex - T. Rex (1970) [2CD, Deluxe Edition]

Tracklist CD2 - Home Demos & Alternate Takes:

01. The Children Of Rarn (Suite) 15:33
02. Jewel (Alternate Take) 02:49
03. The Visit (Alternate Take) 01:41
04. The Time Of Love Is Now (Alternate Take) 01:30
05. Diamond Meadows (Alternate Take) 02:06
06. Root Of Star (Alternate Take) 01:47
07. Beltane Walk (Alternate Take) 02:22
08. Is It Love? (Alternate Take) 02:40
09. One Inch Rock (Alternate Take) 02:42
10. Summer Deep (Alternate Take) 01:53
11. Seagull Woman (Alternate Take) 02:26
12. Suneye 02:00
13. The Wizard (Top Of The Pops: 10th November 1970) 08:39
14. The Children Of Rarn (Top Of The Pops: 10th November 1970) 00:53
15. Ride A White Swan (Top Of The Pops: 10th November 1970) 02:07
16. Dark Lipped Woman (Home Demo) 01:27
17. Deep Summer (Alternate Take) 02:31
18. Meadows Of The Sea (Electric Demo) 04:20

Exact Audio Copy V1.0 beta 4 from 7. December 2014

EAC extraction logfile from 21. March 2015, 10:43

T. Rex / T. Rex Deluxe CD2

Used drive : PLEXTOR BD-R PX-B950SA Adapter: 1 ID: 1

Read mode : Secure
Utilize accurate stream : Yes
Defeat audio cache : Yes
Make use of C2 pointers : No

Read offset correction : 6
Overread into Lead-In and Lead-Out : No
Fill up missing offset samples with silence : Yes
Delete leading and trailing silent blocks : No
Null samples used in CRC calculations : Yes
Used interface : Native Win32 interface for Win NT & 2000

Used output format : Internal WAV Routines
Sample format : 44.100 Hz; 16 Bit; Stereo


TOC of the extracted CD

Track | Start | Length | Start sector | End sector
––––––––––––––––––––––––––––-
1 | 0:00.00 | 15:33.60 | 0 | 70034
2 | 15:33.60 | 2:49.14 | 70035 | 82723
3 | 18:22.74 | 1:41.25 | 82724 | 90323
4 | 20:04.24 | 1:30.50 | 90324 | 97123
5 | 21:34.74 | 2:06.39 | 97124 | 106612
6 | 23:41.38 | 1:47.33 | 106613 | 114670
7 | 25:28.71 | 2:22.35 | 114671 | 125355
8 | 27:51.31 | 2:40.16 | 125356 | 137371
9 | 30:31.47 | 2:42.49 | 137372 | 149570
10 | 33:14.21 | 1:53.23 | 149571 | 158068
11 | 35:07.44 | 2:26.60 | 158069 | 169078
12 | 37:34.29 | 2:00.70 | 169079 | 178148
13 | 39:35.24 | 8:39.51 | 178149 | 217124
14 | 48:15.00 | 0:53.67 | 217125 | 221166
15 | 49:08.67 | 2:07.14 | 221167 | 230705
16 | 51:16.06 | 1:27.46 | 230706 | 237276
17 | 52:43.52 | 2:31.72 | 237277 | 248673
18 | 55:15.49 | 4:20.45 | 248674 | 268218


Range status and errors

Selected range

Filename C:\Users\Meijin\Desktop\ALLexxess\T. Rex\1970 T. Rex (2CD Deluxe Edition Polydor Records 2014)\CD2\T. Rex - T. Rex Deluxe CD2.wav

Peak level 100.0 %
Extraction speed 7.4 X
Range quality 100.0 %
Test CRC D5DBE637
Copy CRC D5DBE637
Copy OK

No errors occurred


AccurateRip summary

Track 1 accurately ripped (confidence 9) [FD11ECD6] (AR v2)
Track 2 accurately ripped (confidence 9) [01D65899] (AR v2)
Track 3 accurately ripped (confidence 9) [7CD7FCD4] (AR v2)
Track 4 accurately ripped (confidence 9) [58FD3CF9] (AR v2)
Track 5 accurately ripped (confidence 9) [B025E304] (AR v2)
Track 6 accurately ripped (confidence 9) [34AA4CF7] (AR v2)
Track 7 accurately ripped (confidence 9) [00EFBE4F] (AR v2)
Track 8 accurately ripped (confidence 9) [630EA03B] (AR v2)
Track 9 accurately ripped (confidence 9) [B38A5ABB] (AR v2)
Track 10 accurately ripped (confidence 9) [54C9F9B8] (AR v2)
Track 11 accurately ripped (confidence 9) [9658B17F] (AR v2)
Track 12 accurately ripped (confidence 9) [8FE08075] (AR v2)
Track 13 accurately ripped (confidence 9) [A8FFD986] (AR v2)
Track 14 accurately ripped (confidence 9) [B02BE4C9] (AR v2)
Track 15 accurately ripped (confidence 9) [D3DEA79D] (AR v2)
Track 16 accurately ripped (confidence 9) [85AD4F12] (AR v2)
Track 17 accurately ripped (confidence 9) [84B75369] (AR v2)
Track 18 accurately ripped (confidence 9) [734C0B12] (AR v2)

All tracks accurately ripped

End of status report

–– CUETools DB Plugin V2.1.4

[CTDB TOCID: Ai8F7BVV3UnSABa_1Lt0UfeChmk-] found
Submit result: Ai8F7BVV3UnSABa_1Lt0UfeChmk- has been confirmed
Track | CTDB Status
1 | (9/9) Accurately ripped
2 | (9/9) Accurately ripped
3 | (9/9) Accurately ripped
4 | (9/9) Accurately ripped
5 | (9/9) Accurately ripped
6 | (9/9) Accurately ripped
7 | (9/9) Accurately ripped
8 | (9/9) Accurately ripped
9 | (9/9) Accurately ripped
10 | (9/9) Accurately ripped
11 | (9/9) Accurately ripped
12 | (9/9) Accurately ripped
13 | (9/9) Accurately ripped
14 | (9/9) Accurately ripped
15 | (9/9) Accurately ripped
16 | (9/9) Accurately ripped
17 | (9/9) Accurately ripped
18 | (9/9) Accurately ripped


==== Log checksum 5C96768E0D9E4CE7AB41E47541108D9481ADFAB0D8621AD8CD4E875CB772D590 ====

foobar2000 1.2.9 / Dynamic Range Meter 1.1.1
log date: 2015-04-10 20:03:38

––––––––––––––––––––––––––––––––––––––––
Analyzed: T. Rex / T. Rex Deluxe CD2
––––––––––––––––––––––––––––––––––––––––

DR Peak RMS Duration Track
––––––––––––––––––––––––––––––––––––––––
DR10 -1.00 dB -14.01 dB 15:34 01-The Children Of Rarn (Suite)
DR10 -1.55 dB -13.12 dB 2:49 02-Jewel (Alternate Take)
DR9 -1.00 dB -12.17 dB 1:41 03-The Visita (Alternate Take)
DR9 -1.00 dB -12.51 dB 1:31 04-The Time Of Love Is Now (Alternate Take)
DR7 -1.00 dB -9.31 dB 2:07 05-Diamond Meadows (Alternate Take)
DR10 -1.00 dB -14.35 dB 1:47 06-Root Of Star (Alternate Take)
DR15 0.00 dB -16.36 dB 2:22 07-Beltane Walk (Alternate Take)
DR10 -1.00 dB -13.19 dB 2:40 08-Is It Love? (Alternate Take)
DR10 -1.00 dB -12.90 dB 2:43 09-One Inch Rock (Alternate Take)
DR11 0.00 dB -12.95 dB 1:53 10-Summer Deep (Alternate Take)
DR8 0.00 dB -10.17 dB 2:27 11-Seagull Women (Alternate Take)
DR7 0.00 dB -7.96 dB 2:01 12-Suneye
DR10 0.00 dB -11.26 dB 8:40 13-The WizardThe Wizard (Top Of The Pops: 10th November 1970)
DR9 -0.93 dB -13.52 dB 0:54 14-The Children Of RarnThe Wizard (Top Of The Pops: 10th November 1970)
DR8 0.00 dB -10.38 dB 2:07 15-Ride A White SwanThe Wizard (Top Of The Pops: 10th November 1970)
DR5 0.00 dB -7.78 dB 1:28 16-Dark Lipped Woman (Home Demo)
DR13 0.00 dB -14.54 dB 2:32 17-Deep Summer (Alternate Take)
DR11 0.00 dB -12.49 dB 4:21 18-Meadows Of The Sea (Electric Demo)
––––––––––––––––––––––––––––––––––––––––

Number of tracks: 18
Official DR value: DR9

Samplerate: 44100 Hz
Channels: 2
Bits per sample: 16
Bitrate: 588 kbps
Codec: FLAC

[CUETools log; Date: 10.04.2015 20:03:42; Version: 2.1.4]
[CTDB TOCID: Ai8F7BVV3UnSABa_1Lt0UfeChmk-] found.
Track | CTDB Status
1 | (10/10) Accurately ripped
2 | (10/10) Accurately ripped
3 | (10/10) Accurately ripped
4 | (10/10) Accurately ripped
5 | (10/10) Accurately ripped
6 | (10/10) Accurately ripped
7 | (10/10) Accurately ripped
8 | (10/10) Accurately ripped
9 | (10/10) Accurately ripped
10 | (10/10) Accurately ripped
11 | (10/10) Accurately ripped
12 | (10/10) Accurately ripped
13 | (10/10) Accurately ripped
14 | (10/10) Accurately ripped
15 | (10/10) Accurately ripped
16 | (10/10) Accurately ripped
17 | (10/10) Accurately ripped
18 | (10/10) Accurately ripped
[AccurateRip ID: 002c48ef-02279d6d-080df812] found.
Track [ CRC | V2 ] Status
01 [7d50624d|fd11ecd6] (00+10/10) Accurately ripped
02 [c861ae56|01d65899] (00+10/10) Accurately ripped
03 [de896cf5|7cd7fcd4] (00+10/10) Accurately ripped
04 [f6455562|58fd3cf9] (00+10/10) Accurately ripped
05 [4dd02cd5|b025e304] (00+10/10) Accurately ripped
06 [16115758|34aa4cf7] (00+10/10) Accurately ripped
07 [b047faca|00efbe4f] (00+10/10) Accurately ripped
08 [680cdf4c|630ea03b] (00+10/10) Accurately ripped
09 [79ad500f|b38a5abb] (00+10/10) Accurately ripped
10 [e0ee45d6|54c9f9b8] (00+10/10) Accurately ripped
11 [ad49aaf9|9658b17f] (00+10/10) Accurately ripped
12 [2dc0ae3c|8fe08075] (00+10/10) Accurately ripped
13 [57aa80e6|a8ffd986] (00+10/10) Accurately ripped
14 [4864818b|b02be4c9] (00+10/10) Accurately ripped
15 [ca91ebab|d3dea79d] (00+10/10) Accurately ripped
16 [fa219d69|85ad4f12] (00+10/10) Accurately ripped
17 [76096cf6|84b75369] (00+10/10) Accurately ripped
18 [4d5813bb|734c0b12] (00+10/10) Accurately ripped

Track Peak [ CRC32 ] [W/O NULL] [ LOG ]
– 100,0 [D5DBE637] [B013C352] CRC32
01 89,1 [BDBA31DF] [724AC054]
02 83,6 [35F58F0B] [69805E09]
03 89,1 [936259F9] [AAB5FEEB]
04 89,1 [0C38AD94] [60A14E79]
05 89,1 [77092964] [852349CE]
06 89,1 [977EB3E9] [58A52EFC]
07 99,9 [227D36A1] [DD79137C]
08 89,1 [EA0F3738] [EB380012]
09 89,1 [CFC657A7] [5940E877]
10 100,0 [1BD50F1D] [C1E2A9C6]
11 100,0 [CAB038C3] [36A8823C]
12 100,0 [3BD28062] [DDBA0BCB]
13 100,0 [400F57DC] [A51EA628]
14 89,8 [26E0E230] [015A8A3B]
15 100,0 [66508D9C] [02071D47]
16 100,0 [8267483B] [B892F239]
17 100,0 [A070727E] [FAB6FEDE]
18 100,0 [869613A9] [09C2F4E9]

T. Rex - T. Rex (1970) [2CD, Deluxe Edition]

All thanks go to ALLexxess

More T. Rex in my Blog

Download T. Rex - T. Rex (1970):