Subcategories

Tony Scott - Music For Yoga Meditation And Other Joys (1968) {1998 Verve By Request} **[RE-UP]**

Posted By: TestTickles
Tony Scott - Music For Yoga Meditation And Other Joys (1968) {1998 Verve By Request} **[RE-UP]**

Tony Scott - Music For Yoga Meditation And Other Joys (1968) {1998 Verve By Request}
EAC Rip | FLAC with CUE and log | scans | 216 mb
MP3 CBR 320kbps | RAR | 103 mb
Genre: jazz, world, meditative

Music For Yoga Meditation And Other Joys is a 1968 album by Tony Scott. The album also features Colin Walcott on sitar, so this album is a clarinet/sitar duet. This CD was released by Verve on 20 October, 1998.

Tony Scott - Music For Yoga Meditation And Other Joys (1968) {1998 Verve By Request} **[RE-UP]**

1. Prana – Life Force
2. Shiva – The Third Eye
3. Samadhi – Ultimate Bliss
4. Hare Krishna – Hail Krishna
5. Hatha – Sun And Moon
6. Kundalina – Serpent Power
7. Sahasrara – Highest Chakra
8. Triveni – Sacred Knot
9. Shanti – Peace

Tony Scott-clarinet
Colin Walcott-sitar

Recorded 28 February, 1968 in New York City
Original recordings produced by Pete Spargo
Director of engineering: Val Valentin

Remastered by Chris Herles

EAC extraction logfile from 24. August 2006, 18:33 for CD
Tony Scott / Music For Yoga Meditation And Other Joys

Used drive : LITE-ON DVDRW SOHW-1633S Adapter: 0 ID: 0
Read mode : Secure with NO C2, accurate stream, disable cache
Read offset correction : 12
Overread into Lead-In and Lead-Out : No

Used output format : Internal WAV Routines
44.100 Hz; 16 Bit; Stereo

Other options :
Fill up missing offset samples with silence : Yes
Delete leading and trailing silent blocks : No
Installed external ASPI interface


Track 1
Filename D:\FLAC\Tony Scott - Music For Yoga Meditation And Other Joys (1968) [FLAC] {1998 Verve By Request}\01 - Prana – Life Force.wav

Pre-gap length 0:00:02.00

Peak level 60.3 %
Track quality 100.0 %
Test CRC A1A1362D
Copy CRC A1A1362D
Copy OK

Track 2
Filename D:\FLAC\Tony Scott - Music For Yoga Meditation And Other Joys (1968) [FLAC] {1998 Verve By Request}\02 - Shiva – The Third Eye.wav

Peak level 89.9 %
Track quality 100.0 %
Test CRC 1D4521CD
Copy CRC 1D4521CD
Copy OK

Track 3
Filename D:\FLAC\Tony Scott - Music For Yoga Meditation And Other Joys (1968) [FLAC] {1998 Verve By Request}\03 - Samadhi – Ultimate Bliss.wav

Peak level 86.4 %
Track quality 100.0 %
Test CRC 4CB7A972
Copy CRC 4CB7A972
Copy OK

Track 4
Filename D:\FLAC\Tony Scott - Music For Yoga Meditation And Other Joys (1968) [FLAC] {1998 Verve By Request}\04 - Hare Krishna – Hail Krishna.wav

Peak level 94.4 %
Track quality 100.0 %
Test CRC E94E81D7
Copy CRC E94E81D7
Copy OK

Track 5
Filename D:\FLAC\Tony Scott - Music For Yoga Meditation And Other Joys (1968) [FLAC] {1998 Verve By Request}\05 - Hatha – Sun And Moon.wav

Pre-gap length 0:00:05.09

Peak level 86.0 %
Track quality 100.0 %
Test CRC 4D17A2FA
Copy CRC 4D17A2FA
Copy OK

Track 6
Filename D:\FLAC\Tony Scott - Music For Yoga Meditation And Other Joys (1968) [FLAC] {1998 Verve By Request}\06 - Kundalina – Serpent Power.wav

Peak level 92.5 %
Track quality 100.0 %
Test CRC 8AC3DA83
Copy CRC 8AC3DA83
Copy OK

Track 7
Filename D:\FLAC\Tony Scott - Music For Yoga Meditation And Other Joys (1968) [FLAC] {1998 Verve By Request}\07 - Sahasrara – Highest Chakra.wav

Peak level 96.2 %
Track quality 100.0 %
Test CRC E81EAEC7
Copy CRC E81EAEC7
Copy OK

Track 8
Filename D:\FLAC\Tony Scott - Music For Yoga Meditation And Other Joys (1968) [FLAC] {1998 Verve By Request}\08 - Triveni – Sacred Knot.wav

Peak level 99.9 %
Track quality 100.0 %
Test CRC 48AD550D
Copy CRC 48AD550D
Copy OK

Track 9
Filename D:\FLAC\Tony Scott - Music For Yoga Meditation And Other Joys (1968) [FLAC] {1998 Verve By Request}\09 - Shanti – Peace.wav

Peak level 69.9 %
Track quality 100.0 %
Test CRC 5427EC3E
Copy CRC 5427EC3E
Copy OK

No errors occured


End of status report


Tony Scott - Music For Yoga Meditation And Other Joys (1968) {1998 Verve By Request} **[RE-UP]**


Check out other titles in my Avaxhome blog.