Subcategories

Tony! Toni! Toné! - Comp! Comp! Comp!: The Singles (1993)

Posted By: TestTickles
Tony! Toni! Toné! - Comp! Comp! Comp!: The Singles (1993)

Tony! Toni! Toné! - Comp! Comp! Comp!: The Singles (1993)
EAC Rip | FLAC with CUE and log | scans | 341 mb
MP3 CBR 320kbps | RAR | 123 mb
Genre: soul, R&B, rap

Comp! Comp! Comp!: The Singles is an "unauthorized" compilation by American R&B group Tony! Toni! Toné! The songs are the album versions of all the singles released from their first three albums plus a closing cut. All sound like they were mastered from the original compact discs.

01. Little Walter
02. Born Not To Know
03. Baby Doll
04. The Blues
05. Oakland Stroke
06. Feels Good
07. It Never Rains (In Southern California)
08. Wherever You Are
09. If I Had No Loot
10. Anniversary
11. Castleers

Exact Audio Copy V1.0 beta 6 from 9. April 2015

EAC extraction logfile from 1. February 2018, 16:29

Tony! Toni! Toné! / Comp! Comp! Comp!: The Singles

Used drive : TSSTcorpDVD+-RW TS-L633C Adapter: 1 ID: 0

Read mode : Secure
Utilize accurate stream : Yes
Defeat audio cache : Yes
Make use of C2 pointers : No

Read offset correction : 6
Overread into Lead-In and Lead-Out : No
Fill up missing offset samples with silence : Yes
Delete leading and trailing silent blocks : No
Null samples used in CRC calculations : Yes
Used interface : Native Win32 interface for Win NT & 2000
Gap handling : Appended to previous track

Used output format : Internal WAV Routines
Sample format : 44.100 Hz; 16 Bit; Stereo


TOC of the extracted CD

Track | Start | Length | Start sector | End sector
––––––––––––––––––––––––––––-
1 | 0:00.00 | 4:53.67 | 0 | 22041
2 | 4:53.67 | 4:44.70 | 22042 | 43411
3 | 9:38.62 | 5:43.09 | 43412 | 69145
4 | 15:21.71 | 4:15.08 | 69146 | 88278
5 | 19:37.04 | 4:42.27 | 88279 | 109455
6 | 24:19.31 | 5:01.00 | 109456 | 132030
7 | 29:20.31 | 5:06.18 | 132031 | 154998
8 | 34:26.49 | 4:52.62 | 154999 | 176960
9 | 39:19.36 | 4:03.12 | 176961 | 195197
10 | 43:22.48 | 9:24.15 | 195198 | 237512
11 | 52:46.63 | 1:16.64 | 237513 | 243276


Track 1

Filename C:\My Documents\My FLAC\Tony! Toni! Toné! - Comp! Comp! Comp!, The Singles (1993) [FLAC]\01 - Little Walter.wav

Pre-gap length 0:00:02.00

Peak level 81.3 %
Extraction speed 3.0 X
Track quality 100.0 %
Test CRC 93BF3485
Copy CRC 93BF3485
Track not present in AccurateRip database
Copy OK

Track 2

Filename C:\My Documents\My FLAC\Tony! Toni! Toné! - Comp! Comp! Comp!, The Singles (1993) [FLAC]\02 - Born Not To Know.wav

Pre-gap length 0:00:02.00

Peak level 83.3 %
Extraction speed 3.3 X
Track quality 100.0 %
Test CRC AAF3FC08
Copy CRC AAF3FC08
Track not present in AccurateRip database
Copy OK

Track 3

Filename C:\My Documents\My FLAC\Tony! Toni! Toné! - Comp! Comp! Comp!, The Singles (1993) [FLAC]\03 - Baby Doll.wav

Pre-gap length 0:00:02.00

Peak level 87.2 %
Extraction speed 3.7 X
Track quality 100.0 %
Test CRC 399A1DC1
Copy CRC 399A1DC1
Track not present in AccurateRip database
Copy OK

Track 4

Filename C:\My Documents\My FLAC\Tony! Toni! Toné! - Comp! Comp! Comp!, The Singles (1993) [FLAC]\04 - The Blues.wav

Pre-gap length 0:00:02.00

Peak level 100.0 %
Extraction speed 3.8 X
Track quality 100.0 %
Test CRC FCBB7BEE
Copy CRC FCBB7BEE
Track not present in AccurateRip database
Copy OK

Track 5

Filename C:\My Documents\My FLAC\Tony! Toni! Toné! - Comp! Comp! Comp!, The Singles (1993) [FLAC]\05 - Oakland Stroke.wav

Pre-gap length 0:00:02.00

Peak level 99.6 %
Extraction speed 4.1 X
Track quality 100.0 %
Test CRC 5F71164A
Copy CRC 5F71164A
Track not present in AccurateRip database
Copy OK

Track 6

Filename C:\My Documents\My FLAC\Tony! Toni! Toné! - Comp! Comp! Comp!, The Singles (1993) [FLAC]\06 - Feels Good.wav

Pre-gap length 0:00:02.00

Peak level 100.0 %
Extraction speed 4.3 X
Track quality 100.0 %
Test CRC 65F98DC0
Copy CRC 65F98DC0
Track not present in AccurateRip database
Copy OK

Track 7

Filename C:\My Documents\My FLAC\Tony! Toni! Toné! - Comp! Comp! Comp!, The Singles (1993) [FLAC]\07 - It Never Rains (In Southern California).wav

Pre-gap length 0:00:02.00

Peak level 100.0 %
Extraction speed 4.1 X
Track quality 100.0 %
Test CRC C11E62E2
Copy CRC C11E62E2
Track not present in AccurateRip database
Copy OK

Track 8

Filename C:\My Documents\My FLAC\Tony! Toni! Toné! - Comp! Comp! Comp!, The Singles (1993) [FLAC]\08 - Wherever You Are.wav

Pre-gap length 0:00:02.00

Peak level 91.6 %
Extraction speed 3.8 X
Track quality 99.9 %
Test CRC C76FAFFD
Copy CRC C76FAFFD
Track not present in AccurateRip database
Copy OK

Track 9

Filename C:\My Documents\My FLAC\Tony! Toni! Toné! - Comp! Comp! Comp!, The Singles (1993) [FLAC]\09 - If I Had No Loot.wav

Pre-gap length 0:00:02.00

Peak level 100.0 %
Extraction speed 4.5 X
Track quality 100.0 %
Test CRC 46219420
Copy CRC 46219420
Track not present in AccurateRip database
Copy OK

Track 10

Filename C:\My Documents\My FLAC\Tony! Toni! Toné! - Comp! Comp! Comp!, The Singles (1993) [FLAC]\10 - Anniversary.wav

Pre-gap length 0:00:02.00

Peak level 100.0 %
Extraction speed 5.0 X
Track quality 100.0 %
Test CRC C3C01749
Copy CRC C3C01749
Track not present in AccurateRip database
Copy OK

Track 11

Filename C:\My Documents\My FLAC\Tony! Toni! Toné! - Comp! Comp! Comp!, The Singles (1993) [FLAC]\11 - Castleers.wav

Peak level 100.0 %
Extraction speed 3.7 X
Track quality 100.0 %
Test CRC 174D132C
Copy CRC 174D132C
Track not present in AccurateRip database
Copy OK


None of the tracks are present in the AccurateRip database

No errors occurred

End of status report

–– CUETools DB Plugin V2.1.6

[CTDB TOCID: wU8_7fhNA7NGekBjrYDONYBLnq4-] disk not present in database
Submit result: wU8_7fhNA7NGekBjrYDONYBLnq4- has been uploaded


==== Log checksum 86DEF93D0104EB1D50330A18E078185928926E7CB8FD8C613ABDD136EAAD28BB ====


Tony! Toni! Toné! - Comp! Comp! Comp!: The Singles (1993)