Teena Marie - two different "Greatest Hits" CD's (1985 Motown/1991 Epic)

Posted By: TestTickles
Teena Marie - two different "Greatest Hits" CD's (1985 Motown/1991 Epic)

Teena Marie - two different "Greatest Hits" CD's (1985 Motown/1991 Epic)
EAC Rip | FLAC with CUE and log | scans | 233 mb, 398 mb
MP3 CBR 320kbps | RAR | 98 mb; 145 mb
Genre: R&B, soul

This represents two different Greatest Hits albums from the late soul singer, Teena Marie. The first, released in 1985, explores her hits she had when she was signed with Motown and features such hits as "Square Biz", "Portuguese Love", and "I Need Your Lovin'". The second, released in 1991, explores her hits when she moved over to Epic Records and features such hits as "Lovergirl", "Ooh La La La", and "If I were A Bell".

Teena Marie - two different "Greatest Hits" CD's (1985 Motown/1991 Epic)

Teena Marie-Greatest Hits (Motown) (1985)

Teena Marie - two different "Greatest Hits" CD's (1985 Motown/1991 Epic)

1. I'm A Sucker For Your Love
2. De Ja Vu (I've Been Here Before)
3. Behind The Groove
4. It Must Be Magic
5. I Need Your Lovin'
6. Aladdin's Lamp
7. Portuguese Love
8. Square Biz
9. Opus III (Does Anybody Care)

Teena Marie - two different "Greatest Hits" CD's (1985 Motown/1991 Epic)


EAC extraction logfile from 26. February 2006, 18:22 for CD
Teena Marie / Greatest Hits

Used drive : LITE-ON DVDRW SOHW-1633S Adapter: 0 ID: 0
Read mode : Secure with NO C2, accurate stream, disable cache
Read offset correction : 12
Overread into Lead-In and Lead-Out : No

Used output format : Internal WAV Routines
44.100 Hz; 16 Bit; Stereo

Other options :
Fill up missing offset samples with silence : Yes
Delete leading and trailing silent blocks : No
Installed external ASPI interface


Track 1
Filename D:\FLAC\Teena Marie - Greatest Hits (Motown) (1985) [FLAC]\01 - I'm A Sucker For Your Love.wav

Pre-gap length 0:00:02.42

Peak level 55.8 %
Track quality 100.0 %
Test CRC 2F74F216
Copy CRC 2F74F216
Copy OK

Track 2
Filename D:\FLAC\Teena Marie - Greatest Hits (Motown) (1985) [FLAC]\02 - De Ja Vu (I've Been Here Before).wav

Pre-gap length 0:00:02.10

Peak level 37.6 %
Track quality 100.0 %
Test CRC E9B8C90E
Copy CRC E9B8C90E
Copy OK

Track 3
Filename D:\FLAC\Teena Marie - Greatest Hits (Motown) (1985) [FLAC]\03 - Behind The Groove.wav

Pre-gap length 0:00:01.13

Peak level 53.3 %
Track quality 100.0 %
Test CRC FB7A9EBF
Copy CRC FB7A9EBF
Copy OK

Track 4
Filename D:\FLAC\Teena Marie - Greatest Hits (Motown) (1985) [FLAC]\04 - It Must Be Magic.wav

Pre-gap length 0:00:01.44

Peak level 34.1 %
Track quality 100.0 %
Test CRC CCD09429
Copy CRC CCD09429
Copy OK

Track 5
Filename D:\FLAC\Teena Marie - Greatest Hits (Motown) (1985) [FLAC]\05 - I Need Your Lovin'.wav

Pre-gap length 0:00:02.53

Peak level 43.7 %
Track quality 100.0 %
Test CRC C4A88FBB
Copy CRC C4A88FBB
Copy OK

Track 6
Filename D:\FLAC\Teena Marie - Greatest Hits (Motown) (1985) [FLAC]\06 - Aladdin's Lamp.wav

Pre-gap length 0:00:01.16

Peak level 43.4 %
Track quality 100.0 %
Test CRC F56CD833
Copy CRC F56CD833
Copy OK

Track 7
Filename D:\FLAC\Teena Marie - Greatest Hits (Motown) (1985) [FLAC]\07 - Portuguese Love.wav

Pre-gap length 0:00:01.38

Peak level 53.0 %
Track quality 100.0 %
Test CRC 98240228
Copy CRC 98240228
Copy OK

Track 8
Filename D:\FLAC\Teena Marie - Greatest Hits (Motown) (1985) [FLAC]\08 - Square Biz.wav

Pre-gap length 0:00:01.13

Peak level 36.2 %
Track quality 100.0 %
Test CRC CE0953CC
Copy CRC CE0953CC
Copy OK

Track 9
Filename D:\FLAC\Teena Marie - Greatest Hits (Motown) (1985) [FLAC]\09 - Opus III (Does Anybody Care).wav

Pre-gap length 0:00:02.92

Peak level 27.6 %
Track quality 100.0 %
Test CRC 414DD112
Copy CRC 414DD112
Copy OK

No errors occured


End of status report


=====

Teena Marie - two different "Greatest Hits" CD's (1985 Motown/1991 Epic)

Teena Marie-Greatest Hits (Epic) (1985)

Teena Marie - two different "Greatest Hits" CD's (1985 Motown/1991 Epic)

1. Lovergirl
2. Work It
3. Ooo La La La
4. If I Were A Bell
5. Dear Lover
6. Here's Looking At You
7. Call Me (I Got Yo Number)
8. Cassanova Brown
9. My Dear Mr Gaye
10. Out On A Limb

Teena Marie - two different "Greatest Hits" CD's (1985 Motown/1991 Epic)


EAC extraction logfile from 26. February 2006, 22:03 for CD
Teena Marie / Greatest Hits

Used drive : LITE-ON DVDRW SOHW-1633S Adapter: 0 ID: 0
Read mode : Secure with NO C2, accurate stream, disable cache
Read offset correction : 12
Overread into Lead-In and Lead-Out : No

Used output format : Internal WAV Routines
44.100 Hz; 16 Bit; Stereo

Other options :
Fill up missing offset samples with silence : Yes
Delete leading and trailing silent blocks : No
Installed external ASPI interface


Track 1
Filename D:\FLAC\Teena Marie - Greatest Hits (Epic) (1991) [FLAC]\01 - Lovergirl.wav

Pre-gap length 0:00:02.00

Peak level 100.0 %
Track quality 100.0 %
Test CRC ADE6CC32
Copy CRC ADE6CC32
Copy OK

Track 2
Filename D:\FLAC\Teena Marie - Greatest Hits (Epic) (1991) [FLAC]\02 - Work It.wav

Pre-gap length 0:00:00.68

Peak level 84.5 %
Track quality 99.9 %
Test CRC 5145B457
Copy CRC 5145B457
Copy OK

Track 3
Filename D:\FLAC\Teena Marie - Greatest Hits (Epic) (1991) [FLAC]\03 - Ooo La La La.wav

Pre-gap length 0:00:01.49

Peak level 75.8 %
Track quality 100.0 %
Test CRC 49224753
Copy CRC 49224753
Copy OK

Track 4
Filename D:\FLAC\Teena Marie - Greatest Hits (Epic) (1991) [FLAC]\04 - If I Were A Bell.wav

Pre-gap length 0:00:01.22

Peak level 86.0 %
Track quality 100.0 %
Test CRC AF0FD4C0
Copy CRC AF0FD4C0
Copy OK

Track 5
Filename D:\FLAC\Teena Marie - Greatest Hits (Epic) (1991) [FLAC]\05 - Dear Lover.wav

Pre-gap length 0:00:01.18

Peak level 90.2 %
Track quality 100.0 %
Test CRC 655514F7
Copy CRC 655514F7
Copy OK

Track 6
Filename D:\FLAC\Teena Marie - Greatest Hits (Epic) (1991) [FLAC]\06 - Here's Looking At You.wav

Pre-gap length 0:00:02.86

Peak level 96.3 %
Track quality 100.0 %
Test CRC CAEE5390
Copy CRC CAEE5390
Copy OK

Track 7
Filename D:\FLAC\Teena Marie - Greatest Hits (Epic) (1991) [FLAC]\07 - Call Me (I Got Yo Number).wav

Pre-gap length 0:00:01.64

Peak level 84.9 %
Track quality 100.0 %
Test CRC 490184C2
Copy CRC 490184C2
Copy OK

Track 8
Filename D:\FLAC\Teena Marie - Greatest Hits (Epic) (1991) [FLAC]\08 - Cassanova Brown.wav

Pre-gap length 0:00:01.69

Peak level 94.1 %
Track quality 99.9 %
Test CRC F3952362
Copy CRC F3952362
Copy OK

Track 9
Filename D:\FLAC\Teena Marie - Greatest Hits (Epic) (1991) [FLAC]\09 - My Dear Mr. Gaye.wav

Pre-gap length 0:00:01.62

Peak level 99.9 %
Track quality 100.0 %
Test CRC 9D244E58
Copy CRC 9D244E58
Copy OK

Track 10
Filename D:\FLAC\Teena Marie - Greatest Hits (Epic) (1991) [FLAC]\10 - Out On A Limb.wav

Pre-gap length 0:00:01.33

Peak level 100.0 %
Track quality 100.0 %
Test CRC 3593B466
Copy CRC 3593B466
Copy OK

No errors occured


End of status report


Teena Marie - two different "Greatest Hits" CD's (1985 Motown/1991 Epic)
NITROFLARE (FLAC; Motown)
NITROFLARE (FLAC; Epic)
NITROFLARE (MP3: Motown)
NITROFLARE (MP3: Epic)