Subcategories

VA - The Sound Of Funk Volume Ten (1996) {Goldmine/Soul Supply}

Posted By: TestTickles
VA - The Sound Of Funk Volume Ten (1996) {Goldmine/Soul Supply}

VA - The Sound Of Funk Volume Ten (1996) {Goldmine/Soul Supply}
EAC Rip | FLAC with CUE and log | scans | 230 mb
MP3 CBR 320kbps | RAR | 127 mb
Genre: R&B, soul, funk

The Sound Of Funk Volume Ten is a 1996 compilation released by Goldmine in conjunction with Soul Supply. All of the songs are sourced from vinyl records and its legality remains unknown but it was one way to find rare sides of soul that would be normally impossible to locate without compilations like this.

VA - The Sound Of Funk Volume Ten (1996) {Goldmine/Soul Supply}

1. Thunder, Lightning & Rain - Super Funky (Part 1) (2:40)
2. Pearly Queen - Quit Jivin' (2:40)
3. The Touch - Pick & Shovel (2:50)
4. Raw Soul - Georgia Walk (2:35)
5. Len & The PA's (Public Assistance) - Soul Block (Of Rocking People) (2:35)
6. McKinley S&ifer - Rare Back & Stretch (Part 1) (2:38)
7. Soul Serenaders - Chicken & Rice (2:19)
8. Jamie Ellis - I Gotta See My Baby (2:46)
9. Bennie Cole & His Soul Bros. - I Don't Want To Cry (2:42)
10. Little Richard III - She Broke Down (Ran Right Out On Me) (2:42)
11. Road Runners - No Names Will Be Called (2:15)
12. Pronouns - Chicken Peck (Part 2) (2:30)
13. Earl Swindell - You Have Come Into My Life (3:02)
14. Mitzi Ross - Man Hunt (2:13)
15. Bronc-Glows - Charge (2:35)
16. Apple & The 3 Oranges - Down Home Publicity (2:55)
17. Allen Matthews - Allen's Party (2:39)
18. Soul Setters - Can You Dig It (2:16)
19. Obe Jessie - Who's The Blame (3:37)
20. J. J. Barnes - So Called Friends (2:28)

Exact Audio Copy V1.1 from 23. June 2015

EAC extraction logfile from 16. March 2017, 11:53

Various Artists / The Sound Of Funk Volume Ten

Used drive : TEAC DVD-ROM DV-28SW Adapter: 1 ID: 0

Read mode : Secure
Utilize accurate stream : Yes
Defeat audio cache : Yes
Make use of C2 pointers : No

Read offset correction : 6
Overread into Lead-In and Lead-Out : No
Fill up missing offset samples with silence : Yes
Delete leading and trailing silent blocks : No
Null samples used in CRC calculations : Yes
Used interface : Native Win32 interface for Win NT & 2000
Gap handling : Appended to previous track

Used output format : Internal WAV Routines
Sample format : 44.100 Hz; 16 Bit; Stereo


TOC of the extracted CD

Track | Start | Length | Start sector | End sector
––––––––––––––––––––––––––––-
1 | 0:00.00 | 2:40.25 | 0 | 12024
2 | 2:40.25 | 2:40.22 | 12025 | 24046
3 | 5:20.47 | 2:50.45 | 24047 | 36841
4 | 8:11.17 | 2:36.10 | 36842 | 48551
5 | 10:47.27 | 2:40.63 | 48552 | 60614
6 | 13:28.15 | 2:42.10 | 60615 | 72774
7 | 16:10.25 | 2:22.50 | 72775 | 83474
8 | 18:33.00 | 2:49.32 | 83475 | 96181
9 | 21:22.32 | 2:40.05 | 96182 | 108186
10 | 24:02.37 | 2:52.08 | 108187 | 121094
11 | 26:54.45 | 2:18.07 | 121095 | 131451
12 | 29:12.52 | 2:33.43 | 131452 | 142969
13 | 31:46.20 | 3:08.35 | 142970 | 157104
14 | 34:54.55 | 2:15.02 | 157105 | 167231
15 | 37:09.57 | 2:35.35 | 167232 | 178891
16 | 39:45.17 | 2:59.33 | 178892 | 192349
17 | 42:44.50 | 2:39.50 | 192350 | 204324
18 | 45:24.25 | 2:16.10 | 204325 | 214534
19 | 47:40.35 | 3:37.32 | 214535 | 230841
20 | 51:17.67 | 2:28.70 | 230842 | 242011


Track 1

Filename C:\My Documents\My FLAC\VA - The Sound Of Funk Volume Ten (1996) [FLAC] {Goldmine, Soul Supply}\01 - Thunder, Lightning & Rain - Super Funky (Part 1).wav

Pre-gap length 0:00:02.00

Peak level 96.8 %
Extraction speed 1.9 X
Track quality 99.9 %
Test CRC EEFD8F3C
Copy CRC EEFD8F3C
Accurately ripped (confidence 1) [94F3D1C7] (AR v2)
Copy OK

Track 2

Filename C:\My Documents\My FLAC\VA - The Sound Of Funk Volume Ten (1996) [FLAC] {Goldmine, Soul Supply}\02 - Pearly Queen - Quit Jivin'.wav

Pre-gap length 0:00:02.05

Peak level 96.8 %
Extraction speed 2.7 X
Track quality 100.0 %
Test CRC 16CEB155
Copy CRC 16CEB155
Accurately ripped (confidence 1) [07B44C62] (AR v2)
Copy OK

Track 3

Filename C:\My Documents\My FLAC\VA - The Sound Of Funk Volume Ten (1996) [FLAC] {Goldmine, Soul Supply}\03 - The Touch - Pick And Shovel.wav

Pre-gap length 0:00:02.10

Peak level 96.8 %
Extraction speed 2.9 X
Track quality 100.0 %
Test CRC F590D4C2
Copy CRC F590D4C2
Accurately ripped (confidence 1) [2974E9E0] (AR v2)
Copy OK

Track 4

Filename C:\My Documents\My FLAC\VA - The Sound Of Funk Volume Ten (1996) [FLAC] {Goldmine, Soul Supply}\04 - Raw Soul - Georgia Walk.wav

Pre-gap length 0:00:02.20

Peak level 96.8 %
Extraction speed 3.1 X
Track quality 100.0 %
Test CRC D4BD1A74
Copy CRC D4BD1A74
Accurately ripped (confidence 1) [121F8129] (AR v2)
Copy OK

Track 5

Filename C:\My Documents\My FLAC\VA - The Sound Of Funk Volume Ten (1996) [FLAC] {Goldmine, Soul Supply}\05 - Len & The PA's (Public Assistance) - Soul Block (Of Rocking People).wav

Pre-gap length 0:00:02.20

Peak level 91.4 %
Extraction speed 3.2 X
Track quality 100.0 %
Test CRC 3EF1A320
Copy CRC 3EF1A320
Accurately ripped (confidence 1) [C03124E4] (AR v2)
Copy OK

Track 6

Filename C:\My Documents\My FLAC\VA - The Sound Of Funk Volume Ten (1996) [FLAC] {Goldmine, Soul Supply}\06 - McKinley Sandifer - Rare Back And Stretch (Part 1).wav

Pre-gap length 0:00:02.03

Peak level 89.3 %
Extraction speed 3.4 X
Track quality 100.0 %
Test CRC 2CB750EE
Copy CRC 2CB750EE
Accurately ripped (confidence 1) [7F4F6A6A] (AR v2)
Copy OK

Track 7

Filename C:\My Documents\My FLAC\VA - The Sound Of Funk Volume Ten (1996) [FLAC] {Goldmine, Soul Supply}\07 - Soul Serenaders - Chicken And Rice.wav

Pre-gap length 0:00:02.20

Peak level 88.8 %
Extraction speed 3.5 X
Track quality 100.0 %
Test CRC 2A3AC915
Copy CRC 2A3AC915
Accurately ripped (confidence 1) [FC9E8577] (AR v2)
Copy OK

Track 8

Filename C:\My Documents\My FLAC\VA - The Sound Of Funk Volume Ten (1996) [FLAC] {Goldmine, Soul Supply}\08 - Jamie Ellis - I Gotta See My Baby.wav

Pre-gap length 0:00:02.10

Peak level 96.8 %
Extraction speed 3.7 X
Track quality 100.0 %
Test CRC E54047D2
Copy CRC E54047D2
Accurately ripped (confidence 1) [5B54DDD7] (AR v2)
Copy OK

Track 9

Filename C:\My Documents\My FLAC\VA - The Sound Of Funk Volume Ten (1996) [FLAC] {Goldmine, Soul Supply}\09 - Bennie Cole & His Soul Bros. - I Don't Want To Cry.wav

Pre-gap length 0:00:02.02

Peak level 96.8 %
Extraction speed 3.8 X
Track quality 100.0 %
Test CRC 31BA0180
Copy CRC 31BA0180
Accurately ripped (confidence 1) [17E17E23] (AR v2)
Copy OK

Track 10

Filename C:\My Documents\My FLAC\VA - The Sound Of Funk Volume Ten (1996) [FLAC] {Goldmine, Soul Supply}\10 - Little Richard III - She Broke Down (Ran Right Out On Me).wav

Pre-gap length 0:00:02.00

Peak level 86.3 %
Extraction speed 4.0 X
Track quality 100.0 %
Test CRC 51C64810
Copy CRC 51C64810
Accurately ripped (confidence 1) [50111EB3] (AR v2)
Copy OK

Track 11

Filename C:\My Documents\My FLAC\VA - The Sound Of Funk Volume Ten (1996) [FLAC] {Goldmine, Soul Supply}\11 - Road Runners - No Names Will Be Called.wav

Pre-gap length 0:00:02.18

Peak level 91.4 %
Extraction speed 3.1 X
Track quality 99.9 %
Test CRC 98C46072
Copy CRC 98C46072
Accurately ripped (confidence 1) [4E77BA65] (AR v2)
Copy OK

Track 12

Filename C:\My Documents\My FLAC\VA - The Sound Of Funk Volume Ten (1996) [FLAC] {Goldmine, Soul Supply}\12 - Pronouns - Chicken Peck (Part 2).wav

Pre-gap length 0:00:02.05

Peak level 96.8 %
Extraction speed 4.0 X
Track quality 100.0 %
Test CRC 849C2D0C
Copy CRC 849C2D0C
Accurately ripped (confidence 1) [2948BB64] (AR v2)
Copy OK

Track 13

Filename C:\My Documents\My FLAC\VA - The Sound Of Funk Volume Ten (1996) [FLAC] {Goldmine, Soul Supply}\13 - Earl Swindell - You Have Come Into My Life.wav

Pre-gap length 0:00:02.18

Peak level 91.1 %
Extraction speed 4.4 X
Track quality 100.0 %
Test CRC CC6228F0
Copy CRC CC6228F0
Accurately ripped (confidence 1) [C0823ABA] (AR v2)
Copy OK

Track 14

Filename C:\My Documents\My FLAC\VA - The Sound Of Funk Volume Ten (1996) [FLAC] {Goldmine, Soul Supply}\14 - Mitzi Ross - Man Hunt.wav

Pre-gap length 0:00:02.10

Peak level 96.9 %
Extraction speed 4.2 X
Track quality 100.0 %
Test CRC E120E11A
Copy CRC E120E11A
Accurately ripped (confidence 1) [23995CB6] (AR v2)
Copy OK

Track 15

Filename C:\My Documents\My FLAC\VA - The Sound Of Funk Volume Ten (1996) [FLAC] {Goldmine, Soul Supply}\15 - Bronc-Glows featuring Phil & Portia - Charge.wav

Pre-gap length 0:00:02.10

Peak level 88.4 %
Extraction speed 4.3 X
Track quality 100.0 %
Test CRC 94C21DB5
Copy CRC 94C21DB5
Accurately ripped (confidence 1) [16C6FB61] (AR v2)
Copy OK

Track 16

Filename C:\My Documents\My FLAC\VA - The Sound Of Funk Volume Ten (1996) [FLAC] {Goldmine, Soul Supply}\16 - Apple & The 3 Oranges - Down Home Publicity.wav

Pre-gap length 0:00:02.17

Peak level 95.3 %
Extraction speed 4.7 X
Track quality 100.0 %
Test CRC 1A321FBF
Copy CRC 1A321FBF
Accurately ripped (confidence 1) [19DBECCE] (AR v2)
Copy OK

Track 17

Filename C:\My Documents\My FLAC\VA - The Sound Of Funk Volume Ten (1996) [FLAC] {Goldmine, Soul Supply}\17 - Allen Matthews - Allen's Party.wav

Pre-gap length 0:00:01.68

Peak level 96.0 %
Extraction speed 3.6 X
Track quality 99.9 %
Test CRC E0C70500
Copy CRC E0C70500
Accurately ripped (confidence 1) [426904FA] (AR v2)
Copy OK

Track 18

Filename C:\My Documents\My FLAC\VA - The Sound Of Funk Volume Ten (1996) [FLAC] {Goldmine, Soul Supply}\18 - Soul Setters - Can You Dig It.wav

Pre-gap length 0:00:02.20

Peak level 87.3 %
Extraction speed 3.4 X
Track quality 99.9 %
Test CRC 78BFAA72
Copy CRC 78BFAA72
Accurately ripped (confidence 1) [3BEAD133] (AR v2)
Copy OK

Track 19

Filename C:\My Documents\My FLAC\VA - The Sound Of Funk Volume Ten (1996) [FLAC] {Goldmine, Soul Supply}\19 - Obe Jessie - Who's The Blame.wav

Pre-gap length 0:00:02.03

Peak level 96.9 %
Extraction speed 4.2 X
Track quality 99.9 %
Test CRC 411DF947
Copy CRC 411DF947
Accurately ripped (confidence 1) [AB9192CA] (AR v2)
Copy OK

Track 20

Filename C:\My Documents\My FLAC\VA - The Sound Of Funk Volume Ten (1996) [FLAC] {Goldmine, Soul Supply}\20 - J.J. Barnes - So Called Friends.wav

Pre-gap length 0:00:02.12

Peak level 80.7 %
Extraction speed 4.9 X
Track quality 100.0 %
Test CRC E120DB54
Copy CRC E120DB54
Accurately ripped (confidence 1) [6283D972] (AR v2)
Copy OK


All tracks accurately ripped

No errors occurred

End of status report

–– CUETools DB Plugin V2.1.6

[CTDB TOCID: m_0XYm68UKBm2xkGRUPtt8c4LGY-] found
Submit result: already submitted
Track | CTDB Status
1 | (4/4) Accurately ripped
2 | (4/4) Accurately ripped
3 | (4/4) Accurately ripped
4 | (4/4) Accurately ripped
5 | (4/4) Accurately ripped
6 | (4/4) Accurately ripped
7 | (4/4) Accurately ripped
8 | (4/4) Accurately ripped
9 | (4/4) Accurately ripped
10 | (4/4) Accurately ripped
11 | (4/4) Accurately ripped
12 | (4/4) Accurately ripped
13 | (4/4) Accurately ripped
14 | (4/4) Accurately ripped
15 | (4/4) Accurately ripped
16 | (4/4) Accurately ripped
17 | (4/4) Accurately ripped
18 | (4/4) Accurately ripped
19 | (4/4) Accurately ripped
20 | (4/4) Accurately ripped


==== Log checksum F49F9811B655BAA382A87047629177062A1AB7778A2FBFCFF666FB20F393934A ====


VA - The Sound Of Funk Volume Ten (1996) {Goldmine/Soul Supply}