Subcategories

VA - The Best Of Loma Records: The Rise And Fall of A 1960's Soul Label (2CD) (1995) {Warner Archives} **[RE-UP]**

Posted By: TestTickles
VA - The Best Of Loma Records: The Rise And Fall of A 1960's Soul Label (2CD) (1995) {Warner Archives} **[RE-UP]**

VA - The Best Of Loma Records: The Rise And Fall of A 1960's Soul Label (2CD) (1995) {Warner Archives}
EAC Rip | FLAC with CUE and log | scans | 895 mb
MP3 CBR 320kbps | RAR | 365 mb
Genre: soul, R&B

The Best Of Loma Records: The Rise And Fall of A 1960's Soul Label is a 2CD compilation released by Warner Archives in 1995. It features 50 songs by a wide range of artists, including Lorraine Ellison, Ike & Tina Turner, Mary Lee Whitney, and Linda Jones.
It's fair to say that Loma Records was one of the most misunderstood records labels of its time. An R&B subsidiary of Warner Bros., Loma existed in a vacuum, fronted by a record company that was embracing the progressive trends in rock and pop with varying degrees of success. Add that to the fact that Warner really didn't quite know what to do in the R&B market, and it's a wonder the label lasted as long as it did (1964-1968). But the music was another story, and the 50 tracks collected on The Best of Loma Records: Rise and Fall of a 1960s Soul Label reveal that the records were made with an incredible degree of care and class. Although they were obviously attempting to ape the success of labels like Motown, Stax and others, the talent on these quality sides (Ike & Tina Turner, J.J. Jackson, the Enchanters) and the producers (Jerry Ragovoy, Lenny Waronker) produced excellent and original results. Highly recommended for any fan of '60s soul, this is the real thing.

VA - The Best Of Loma Records: The Rise And Fall of A 1960's Soul Label (2CD) (1995) {Warner Archives} **[RE-UP]**

DISC 1
01. Ike & Tina Turner - Finger Poppin'
02. Little Jerry Williams - I'm The Lover Man
03. Ike & Tina Turner - A Fool For A Fool
04. The Enchanters - I Wanna Thank You
05. The Invincibles - Heart Fool Of Love
06. Ike & Tina Turner - Tell Her I'm Not Home
07. The Olympics - Rainin' In My Heart
08. The Enchanters - I Want To Be Loved
09. The Enchanters - I Paid For The Party
10. The Olympics - Good Lovin'
11. Ike & Tina Turner - (I'll Do Anything) Just To Be With You
12. Ike & Tina Turner - Somebody (Somewhere) Needs You
13. Walter Foster - Your Search Is Over
14. Baby Lloyd - There's Something On Your Mind (Part 1)
15. Bobby Bennett & The Dynamics - - Soul Jerk (Parts 1 & 2)
16. The Apollas - Lock Me In Your Heart
17. The Marvellos - Something's Burnin'
18. The Apollas - You're Absolutely Right
19. The Marvellos - We Go Together
20. The Invincibles - Can't Win
21. Mary Lee Whitney - Don't Come A-Knockin'
22. The Marvellos - Why Do Want To Hurt The One That Loves You
23. The Marvellos - You're Such A Sweet Thing
24. The Invincibles - I Couldn't Stand It
25. Lorraine Ellison - Stay With Me
–-
Track 1, 11 & 12 produced by Ike Turner (tracks 11 & 12 credited to IKECO Productions)
Track 2 produced by Frank Slay
Track 3 produced by Ike Turner and Buck Ram
Tracks 4, 8, 9, 10 & 25 produced by Jerry Ragovoy
Tracks 5, 20 & 24 produced by Hooven & Winn
Tracks 6 & 7 produced by Bob Krasnow
Tracks 13-15 produced by James Brown
Tracks 16 & 18 produced by Dick Glasser
Tracks 17 & 19 produced by Marc Gordon
Track 21 produced and arranged by Bobby Paris with Doug Best
Tracks 22 & 23 produced by Marc Gordon & Willie Hutch
===
Tracks 1-5: released in 1964
Tracks 6-16: released in 1965
Tracks 17-25: released in 1966

***
DISC 2
01. J.J. Jackson - But It's Alright
02. Lukas Lollipop - Don't Hold On To Someone (Who Don't Love You)
03. Ben Aiken - If I Told You Once (I Told You A Million Times)
04. The Teen Turbans - We Need To Be Loved
05. Roy Redmond - Ain't That Terrible
06. Roy Redmond - A Change Is Gonna Come
07. Linda Jones - Hypnotized
08. The Marvellos - Don't Play With My Heart
09. Ben Aiken - God Bless My Girl (But Don't Forget About Me)
10. Lorraine Ellison - Heart Be Still
11. Carl Hall - You Don't Know Nothing About Love
12. Roy Redmond - That Old Time Feeling
13. Linda Jones - I Can't Stand It
14. The Apollas (Leola, Ella, and Billie) - Who Would Want Me Now
15. Linda Jones - What Have I Done (To Make You Mad)
16. Roy Redmond - Good Day Sunshine
17. Linda Jones - Give My Love A Try
18. J.J. Jackson - Down, But Not Out
19. The Mighty Hannibal - Somebody In The World For You
20. Lonnie Youngblood - Roll With The Punches
21. The Mighty Hannibal - Get In The Groove
22. The Three Degrees - If That Guy Walks Out Of My Life
23. J.J. Jackson - Too Late
24. Lorraine Ellison - Try (Just A Little Bit Harder)
25. Linda Jones - What Can I Do (Without You)
–-
Track 1 produced by Lew Futterman
Track 2 produced by Startime Productions. Inc.
Track 3, 5, 6, 9-12, 16, 20 & 24 produced by Jerry Ragovoy
Track 4 produced by Lenny Waronker
Tracks 7, 13, 15, 17 & 25 produced by George Kerr
Track 8 produced by Marc Gordon & Willie Hutch
Track 14 produced by Dick Glasser
Track 18 produced by Lew Futterman and Windsor King
Tracks 19 & 21 produced by The Mighty Hannibal
Track 22 produced by Richard Barrett
Track 23 produced by Jerry Ragovoy, Windsor King & Lew Futterman
===
Tracks 1 & 4: released in 1966
Tracks 2-3, 5-17: released in 1967
Tracks 18-21, 23-25: released in 1968
Track 22 previously unreleased, recorded in 1968


EAC extraction logfile from 16. June 2007, 22:12 for CD
Various / The Best Of Loma Records (Disc 1)

Used drive : LITE-ON DVDRW SOHW-1633S Adapter: 0 ID: 0
Read mode : Secure with NO C2, accurate stream, disable cache
Read offset correction : 12
Overread into Lead-In and Lead-Out : No

Used output format : Internal WAV Routines
44.100 Hz; 16 Bit; Stereo

Other options :
Fill up missing offset samples with silence : Yes
Delete leading and trailing silent blocks : No
Installed external ASPI interface


Track 1
Filename D:\FLAC\VA - The Best Of Loma Records (2CD) (1995) [FLAC] {Warner Archives}\Disc 1\01 - Finger Poppin'.wav

Pre-gap length 0:00:02.42

Peak level 87.2 %
Track quality 100.0 %
Test CRC F3BB6726
Copy CRC F3BB6726
Copy OK

Track 2
Filename D:\FLAC\VA - The Best Of Loma Records (2CD) (1995) [FLAC] {Warner Archives}\Disc 1\02 - I'm The Lover Man.wav

Pre-gap length 0:00:00.84

Peak level 88.4 %
Track quality 99.9 %
Test CRC C7865A4F
Copy CRC C7865A4F
Copy OK

Track 3
Filename D:\FLAC\VA - The Best Of Loma Records (2CD) (1995) [FLAC] {Warner Archives}\Disc 1\03 - A Fool For A Fool.wav

Pre-gap length 0:00:01.66

Peak level 75.4 %
Track quality 100.0 %
Test CRC CEEC1176
Copy CRC CEEC1176
Copy OK

Track 4
Filename D:\FLAC\VA - The Best Of Loma Records (2CD) (1995) [FLAC] {Warner Archives}\Disc 1\04 - I Wanna Thank You.wav

Pre-gap length 0:00:00.86

Peak level 77.0 %
Track quality 100.0 %
Test CRC 49370E7D
Copy CRC 49370E7D
Copy OK

Track 5
Filename D:\FLAC\VA - The Best Of Loma Records (2CD) (1995) [FLAC] {Warner Archives}\Disc 1\05 - Heart Fool Of Love.wav

Pre-gap length 0:00:01.66

Peak level 82.5 %
Track quality 100.0 %
Test CRC 72633822
Copy CRC 72633822
Copy OK

Track 6
Filename D:\FLAC\VA - The Best Of Loma Records (2CD) (1995) [FLAC] {Warner Archives}\Disc 1\06 - Tell Her I'm Not Home.wav

Pre-gap length 0:00:01.60

Peak level 80.1 %
Track quality 100.0 %
Test CRC F1EC7A15
Copy CRC F1EC7A15
Copy OK

Track 7
Filename D:\FLAC\VA - The Best Of Loma Records (2CD) (1995) [FLAC] {Warner Archives}\Disc 1\07 - Rainin' In My Heart.wav

Pre-gap length 0:00:00.77

Peak level 88.4 %
Track quality 100.0 %
Test CRC D5E1AAB0
Copy CRC D5E1AAB0
Copy OK

Track 8
Filename D:\FLAC\VA - The Best Of Loma Records (2CD) (1995) [FLAC] {Warner Archives}\Disc 1\08 - I Want To Be Loved.wav

Pre-gap length 0:00:00.76

Peak level 74.0 %
Track quality 100.0 %
Test CRC 5A85E3D4
Copy CRC 5A85E3D4
Copy OK

Track 9
Filename D:\FLAC\VA - The Best Of Loma Records (2CD) (1995) [FLAC] {Warner Archives}\Disc 1\09 - I Paid For The Party.wav

Pre-gap length 0:00:01.69

Peak level 74.0 %
Track quality 100.0 %
Test CRC FB694EB7
Copy CRC FB694EB7
Copy OK

Track 10
Filename D:\FLAC\VA - The Best Of Loma Records (2CD) (1995) [FLAC] {Warner Archives}\Disc 1\10 - Good Lovin'.wav

Pre-gap length 0:00:01.20

Peak level 80.4 %
Track quality 100.0 %
Test CRC 62869E5A
Copy CRC 62869E5A
Copy OK

Track 11
Filename D:\FLAC\VA - The Best Of Loma Records (2CD) (1995) [FLAC] {Warner Archives}\Disc 1\11 - (I'll Do Anything) Just To Be With You.wav

Pre-gap length 0:00:00.46

Peak level 79.3 %
Track quality 100.0 %
Test CRC EA53AE7C
Copy CRC EA53AE7C
Copy OK

Track 12
Filename D:\FLAC\VA - The Best Of Loma Records (2CD) (1995) [FLAC] {Warner Archives}\Disc 1\12 - Somebody (Somewhere) Needs You.wav

Pre-gap length 0:00:01.82

Peak level 80.4 %
Track quality 100.0 %
Test CRC 8B696466
Copy CRC 8B696466
Copy OK

Track 13
Filename D:\FLAC\VA - The Best Of Loma Records (2CD) (1995) [FLAC] {Warner Archives}\Disc 1\13 - Your Search Is Over.wav

Pre-gap length 0:00:00.33

Peak level 85.5 %
Track quality 100.0 %
Test CRC DC8013BC
Copy CRC DC8013BC
Copy OK

Track 14
Filename D:\FLAC\VA - The Best Of Loma Records (2CD) (1995) [FLAC] {Warner Archives}\Disc 1\14 - There's Something On Your Mind (Part 1).wav

Pre-gap length 0:00:00.86

Peak level 88.4 %
Track quality 100.0 %
Test CRC 37690EA9
Copy CRC 37690EA9
Copy OK

Track 15
Filename D:\FLAC\VA - The Best Of Loma Records (2CD) (1995) [FLAC] {Warner Archives}\Disc 1\15 - Soul Jerk (Parts 1 & 2).wav

Pre-gap length 0:00:00.89

Peak level 88.4 %
Track quality 99.9 %
Test CRC DA60FC43
Copy CRC DA60FC43
Copy OK

Track 16
Filename D:\FLAC\VA - The Best Of Loma Records (2CD) (1995) [FLAC] {Warner Archives}\Disc 1\16 - Lock Me In Your Heart.wav

Pre-gap length 0:00:00.82

Peak level 81.1 %
Track quality 100.0 %
Test CRC 46657AAC
Copy CRC 46657AAC
Copy OK

Track 17
Filename D:\FLAC\VA - The Best Of Loma Records (2CD) (1995) [FLAC] {Warner Archives}\Disc 1\17 - Something's Burnin'.wav

Peak level 78.0 %
Track quality 100.0 %
Test CRC 2B7AE4DD
Copy CRC 2B7AE4DD
Copy OK

Track 18
Filename D:\FLAC\VA - The Best Of Loma Records (2CD) (1995) [FLAC] {Warner Archives}\Disc 1\18 - You're Absolutely Right.wav

Pre-gap length 0:00:00.30

Peak level 82.3 %
Track quality 100.0 %
Test CRC 1CA60E62
Copy CRC 1CA60E62
Copy OK

Track 19
Filename D:\FLAC\VA - The Best Of Loma Records (2CD) (1995) [FLAC] {Warner Archives}\Disc 1\19 - We Go Together.wav

Pre-gap length 0:00:00.42

Peak level 88.4 %
Track quality 100.0 %
Test CRC 334D88D5
Copy CRC 334D88D5
Copy OK

Track 20
Filename D:\FLAC\VA - The Best Of Loma Records (2CD) (1995) [FLAC] {Warner Archives}\Disc 1\20 - Can't Win.wav

Pre-gap length 0:00:00.44

Peak level 88.4 %
Track quality 100.0 %
Test CRC BDB7E090
Copy CRC BDB7E090
Copy OK

Track 21
Filename D:\FLAC\VA - The Best Of Loma Records (2CD) (1995) [FLAC] {Warner Archives}\Disc 1\21 - Don't Come A-Knockin'.wav

Pre-gap length 0:00:00.82

Peak level 85.7 %
Track quality 100.0 %
Test CRC 027BF600
Copy CRC 027BF600
Copy OK

Track 22
Filename D:\FLAC\VA - The Best Of Loma Records (2CD) (1995) [FLAC] {Warner Archives}\Disc 1\22 - Why Do Want To Hurt The One That Loves You.wav

Pre-gap length 0:00:02.10

Peak level 87.4 %
Track quality 100.0 %
Test CRC B2A726D2
Copy CRC B2A726D2
Copy OK

Track 23
Filename D:\FLAC\VA - The Best Of Loma Records (2CD) (1995) [FLAC] {Warner Archives}\Disc 1\23 - You're Such A Sweet Thing.wav

Pre-gap length 0:00:01.04

Peak level 75.4 %
Track quality 100.0 %
Test CRC 1DDBE3C9
Copy CRC 1DDBE3C9
Copy OK

Track 24
Filename D:\FLAC\VA - The Best Of Loma Records (2CD) (1995) [FLAC] {Warner Archives}\Disc 1\24 - I Couldn't Stand It.wav

Pre-gap length 0:00:01.20

Peak level 78.7 %
Track quality 100.0 %
Test CRC 840432EA
Copy CRC 840432EA
Copy OK

Track 25
Filename D:\FLAC\VA - The Best Of Loma Records (2CD) (1995) [FLAC] {Warner Archives}\Disc 1\25 - Stay With Me.wav

Pre-gap length 0:00:00.90

Peak level 72.7 %
Track quality 99.9 %
Test CRC C58BDE7C
Copy CRC C58BDE7C
Copy OK

No errors occured


End of status report




EAC extraction logfile from 17. June 2007, 7:34 for CD
Various / The Best Of Loma Records (Disc 2)

Used drive : LITE-ON DVDRW SOHW-1633S Adapter: 0 ID: 0
Read mode : Secure with NO C2, accurate stream, disable cache
Read offset correction : 12
Overread into Lead-In and Lead-Out : No

Used output format : Internal WAV Routines
44.100 Hz; 16 Bit; Stereo

Other options :
Fill up missing offset samples with silence : Yes
Delete leading and trailing silent blocks : No
Installed external ASPI interface


Track 1
Filename D:\FLAC\VA - The Best Of Loma Records (2CD) (1995) [FLAC] {Warner Archives}\Disc 2\01 - But It's Alright.wav

Pre-gap length 0:00:02.42

Peak level 89.9 %
Track quality 100.0 %
Test CRC 60CDBBB1
Copy CRC 60CDBBB1
Copy OK

Track 2
Filename D:\FLAC\VA - The Best Of Loma Records (2CD) (1995) [FLAC] {Warner Archives}\Disc 2\02 - Don't Hold On To Someone (Who Don't Love You).wav

Pre-gap length 0:00:01.09

Peak level 83.3 %
Track quality 100.0 %
Test CRC 9A2DC5BA
Copy CRC 9A2DC5BA
Copy OK

Track 3
Filename D:\FLAC\VA - The Best Of Loma Records (2CD) (1995) [FLAC] {Warner Archives}\Disc 2\03 - If I Told You Once (I Told You A Million Times).wav

Pre-gap length 0:00:00.46

Peak level 84.2 %
Track quality 100.0 %
Test CRC F0187E29
Copy CRC F0187E29
Copy OK

Track 4
Filename D:\FLAC\VA - The Best Of Loma Records (2CD) (1995) [FLAC] {Warner Archives}\Disc 2\04 - We Need To Be Loved.wav

Pre-gap length 0:00:00.29

Peak level 89.6 %
Track quality 100.0 %
Test CRC DAD9BD02
Copy CRC DAD9BD02
Copy OK

Track 5
Filename D:\FLAC\VA - The Best Of Loma Records (2CD) (1995) [FLAC] {Warner Archives}\Disc 2\05 - Ain't That Terrible.wav

Pre-gap length 0:00:00.90

Peak level 98.7 %
Track quality 100.0 %
Test CRC D8426724
Copy CRC D8426724
Copy OK

Track 6
Filename D:\FLAC\VA - The Best Of Loma Records (2CD) (1995) [FLAC] {Warner Archives}\Disc 2\06 - A Change Is Gonna Come.wav

Peak level 89.2 %
Track quality 100.0 %
Test CRC 2654C4C3
Copy CRC 2654C4C3
Copy OK

Track 7
Filename D:\FLAC\VA - The Best Of Loma Records (2CD) (1995) [FLAC] {Warner Archives}\Disc 2\07 - Hypnotized.wav

Pre-gap length 0:00:00.73

Peak level 94.8 %
Track quality 100.0 %
Test CRC 23DFE602
Copy CRC 23DFE602
Copy OK

Track 8
Filename D:\FLAC\VA - The Best Of Loma Records (2CD) (1995) [FLAC] {Warner Archives}\Disc 2\08 - Don't Play With My Heart.wav

Pre-gap length 0:00:00.02

Peak level 81.2 %
Track quality 100.0 %
Test CRC 1244EB03
Copy CRC 1244EB03
Copy OK

Track 9
Filename D:\FLAC\VA - The Best Of Loma Records (2CD) (1995) [FLAC] {Warner Archives}\Disc 2\09 - God Bless My Girl (But Don't Forget About Me).wav

Pre-gap length 0:00:00.37

Peak level 88.6 %
Track quality 100.0 %
Test CRC 9D99E6FC
Copy CRC 9D99E6FC
Copy OK

Track 10
Filename D:\FLAC\VA - The Best Of Loma Records (2CD) (1995) [FLAC] {Warner Archives}\Disc 2\10 - Heart Be Still.wav

Pre-gap length 0:00:00.20

Peak level 98.7 %
Track quality 100.0 %
Test CRC 3919E7C9
Copy CRC 3919E7C9
Copy OK

Track 11
Filename D:\FLAC\VA - The Best Of Loma Records (2CD) (1995) [FLAC] {Warner Archives}\Disc 2\11 - You Don't Know Nothing About Love.wav

Pre-gap length 0:00:00.29

Peak level 98.7 %
Track quality 100.0 %
Test CRC 96D54C55
Copy CRC 96D54C55
Copy OK

Track 12
Filename D:\FLAC\VA - The Best Of Loma Records (2CD) (1995) [FLAC] {Warner Archives}\Disc 2\12 - That Old Time Feeling.wav

Pre-gap length 0:00:00.80

Peak level 89.3 %
Track quality 100.0 %
Test CRC D56A34EA
Copy CRC D56A34EA
Copy OK

Track 13
Filename D:\FLAC\VA - The Best Of Loma Records (2CD) (1995) [FLAC] {Warner Archives}\Disc 2\13 - I Can't Stand It.wav

Pre-gap length 0:00:00.33

Peak level 98.6 %
Track quality 99.9 %
Test CRC 142ECE62
Copy CRC 142ECE62
Copy OK

Track 14
Filename D:\FLAC\VA - The Best Of Loma Records (2CD) (1995) [FLAC] {Warner Archives}\Disc 2\14 - Who Would Want Me Now.wav

Pre-gap length 0:00:00.53

Peak level 98.7 %
Track quality 100.0 %
Test CRC 85149D3E
Copy CRC 85149D3E
Copy OK

Track 15
Filename D:\FLAC\VA - The Best Of Loma Records (2CD) (1995) [FLAC] {Warner Archives}\Disc 2\15 - What Have I Done (To Make You Mad).wav

Pre-gap length 0:00:00.13

Peak level 98.7 %
Track quality 100.0 %
Test CRC 9D3CF7ED
Copy CRC 9D3CF7ED
Copy OK

Track 16
Filename D:\FLAC\VA - The Best Of Loma Records (2CD) (1995) [FLAC] {Warner Archives}\Disc 2\16 - Good Day Sunshine.wav

Pre-gap length 0:00:00.10

Peak level 85.4 %
Track quality 99.9 %
Test CRC 31465879
Copy CRC 31465879
Copy OK

Track 17
Filename D:\FLAC\VA - The Best Of Loma Records (2CD) (1995) [FLAC] {Warner Archives}\Disc 2\17 - Give My Love A Try.wav

Pre-gap length 0:00:00.60

Peak level 88.5 %
Track quality 100.0 %
Test CRC 0744929C
Copy CRC 0744929C
Copy OK

Track 18
Filename D:\FLAC\VA - The Best Of Loma Records (2CD) (1995) [FLAC] {Warner Archives}\Disc 2\18 - Down, But Not Out.wav

Pre-gap length 0:00:00.60

Peak level 84.3 %
Track quality 100.0 %
Test CRC C4740E54
Copy CRC C4740E54
Copy OK

Track 19
Filename D:\FLAC\VA - The Best Of Loma Records (2CD) (1995) [FLAC] {Warner Archives}\Disc 2\19 - Somebody In The World For You.wav

Pre-gap length 0:00:00.66

Peak level 98.7 %
Track quality 100.0 %
Test CRC E0179EF6
Copy CRC E0179EF6
Copy OK

Track 20
Filename D:\FLAC\VA - The Best Of Loma Records (2CD) (1995) [FLAC] {Warner Archives}\Disc 2\20 - Roll With The Punches.wav

Pre-gap length 0:00:00.29

Peak level 98.7 %
Track quality 100.0 %
Test CRC 973F1E89
Copy CRC 973F1E89
Copy OK

Track 21
Filename D:\FLAC\VA - The Best Of Loma Records (2CD) (1995) [FLAC] {Warner Archives}\Disc 2\21 - Get In The Groove.wav

Pre-gap length 0:00:00.53

Peak level 95.4 %
Track quality 100.0 %
Test CRC F3BC18A1
Copy CRC F3BC18A1
Copy OK

Track 22
Filename D:\FLAC\VA - The Best Of Loma Records (2CD) (1995) [FLAC] {Warner Archives}\Disc 2\22 - If That Guy Walks Out Of My Life.wav

Pre-gap length 0:00:00.13

Peak level 94.2 %
Track quality 100.0 %
Test CRC 09FC3EB1
Copy CRC 09FC3EB1
Copy OK

Track 23
Filename D:\FLAC\VA - The Best Of Loma Records (2CD) (1995) [FLAC] {Warner Archives}\Disc 2\23 - Too Late.wav

Pre-gap length 0:00:00.80

Peak level 98.7 %
Track quality 100.0 %
Test CRC D10A1E6F
Copy CRC D10A1E6F
Copy OK

Track 24
Filename D:\FLAC\VA - The Best Of Loma Records (2CD) (1995) [FLAC] {Warner Archives}\Disc 2\24 - Try (Just A Little Bit Harder).wav

Pre-gap length 0:00:00.93

Peak level 85.2 %
Track quality 100.0 %
Test CRC 5A61932F
Copy CRC 5A61932F
Copy OK

Track 25
Filename D:\FLAC\VA - The Best Of Loma Records (2CD) (1995) [FLAC] {Warner Archives}\Disc 2\25 - What Can I Do (Without You).wav

Pre-gap length 0:00:00.80

Peak level 98.7 %
Track quality 100.0 %
Test CRC 72D431C8
Copy CRC 72D431C8
Copy OK

No errors occured


End of status report


VA - The Best Of Loma Records: The Rise And Fall of A 1960's Soul Label (2CD) (1995) {Warner Archives} **[RE-UP]**