Subcategories

The Parliaments - Testify!: The Best Of The Early Years (2000)

Posted By: TestTickles
The Parliaments - Testify!: The Best Of The Early Years (2000)

The Parliaments - Testify!: The Best Of The Early Years (2000)
EAC Rip | FLAC with CUE and log | scans | 268 mb
MP3 CBR 320kbps | RAR | 120 mb
Genre: R&B, soul

Testify!: The Best Of The Early Years is a 2000 compilation by the Detroit vocal group, The Parliaments, fronted by George Clinton. This consists of material they released on the Revilot label, along with a few tracks they did as/with The Fellows on the Revilot-subsidiary Solid Hit. They would morph into two more groups, Funkadelic and Parliament but this was Clinton and his friends as a vocal group. This was released by Conoisseur Collection Ltd.

01. (I Wanna) Testify (3:04)
02. I Can Feel The Ice Melting (2:37)
03. All Your Goodies Are Gone (3:13)
04. Don't Be Sore At Me (2:26)
05. Little Man (2:34)
06. The Goose That Laid The Golden Egg (3:06)
07. Look At What I Almost Missed (3:14)
08. What You Been Growing (2:27)
09. Good Old Music (3:16)
10. Time (2:48)
11. A New Day Begins (3:07)
12. I'll Wait (2:49)
13. I'll Wait (Instrumental) (2:17)
14. All Your Goodies Are Gone (Instrumental) (2:35)
15. Baby I Owe You Something (Instrumental) (2:41)
16. Let's Make It Last (The Fellows) (2:58)
17. She's Always There (The Fellows) (2:13)
18. Heart Trouble (Demo) (2:49)
19. That Was My Girl (Demo) (2:43)

Compilation and reissue production: Bob Fisher

EAC extraction logfile from 17. June 2006, 17:30 for CD
The Parliaments / Testify!, The Best Of The Early Years

Used drive : LITE-ON DVDRW SOHW-1633S Adapter: 0 ID: 0
Read mode : Secure with NO C2, accurate stream, disable cache
Read offset correction : 12
Overread into Lead-In and Lead-Out : No

Used output format : Internal WAV Routines
44.100 Hz; 16 Bit; Stereo

Other options :
Fill up missing offset samples with silence : Yes
Delete leading and trailing silent blocks : No
Installed external ASPI interface


Track 1
Filename D:\FLAC\The Parliaments - Testify!, The Best Of The Early Years (2000) [FLAC]\01 - (I Wanna) Testify.wav

Pre-gap length 0:00:02.00

Peak level 86.1 %
Track quality 99.8 %
Test CRC DB0C93C3
Copy CRC DB0C93C3
Copy OK

Track 2
Filename D:\FLAC\The Parliaments - Testify!, The Best Of The Early Years (2000) [FLAC]\02 - I Can Feel The Ice Melting.wav

Pre-gap length 0:00:00.97

Peak level 82.7 %
Track quality 99.9 %
Test CRC E4780790
Copy CRC E4780790
Copy OK

Track 3
Filename D:\FLAC\The Parliaments - Testify!, The Best Of The Early Years (2000) [FLAC]\03 - All Your Goodies Are Gone.wav

Pre-gap length 0:00:00.98

Peak level 98.9 %
Track quality 99.9 %
Test CRC 78CEE53B
Copy CRC 78CEE53B
Copy OK

Track 4
Filename D:\FLAC\The Parliaments - Testify!, The Best Of The Early Years (2000) [FLAC]\04 - Don't Be Sore At Me.wav

Pre-gap length 0:00:00.97

Peak level 97.9 %
Track quality 99.9 %
Test CRC ACBF4C90
Copy CRC ACBF4C90
Copy OK

Track 5
Filename D:\FLAC\The Parliaments - Testify!, The Best Of The Early Years (2000) [FLAC]\05 - Little Man.wav

Pre-gap length 0:00:00.97

Peak level 90.2 %
Track quality 100.0 %
Test CRC D4C05354
Copy CRC D4C05354
Copy OK

Track 6
Filename D:\FLAC\The Parliaments - Testify!, The Best Of The Early Years (2000) [FLAC]\06 - The Goose That Laid The Golden Egg.wav

Pre-gap length 0:00:00.97

Peak level 82.9 %
Track quality 99.8 %
Test CRC 2A5C71E0
Copy CRC 2A5C71E0
Copy OK

Track 7
Filename D:\FLAC\The Parliaments - Testify!, The Best Of The Early Years (2000) [FLAC]\07 - Look At What I Almost Missed.wav

Pre-gap length 0:00:07.97

Peak level 93.4 %
Track quality 99.8 %
Test CRC 7F975E1E
Copy CRC 7F975E1E
Copy OK

Track 8
Filename D:\FLAC\The Parliaments - Testify!, The Best Of The Early Years (2000) [FLAC]\08 - What You Been Growing.wav

Pre-gap length 0:00:00.97

Peak level 95.6 %
Track quality 99.9 %
Test CRC 6E2DC957
Copy CRC 6E2DC957
Copy OK

Track 9
Filename D:\FLAC\The Parliaments - Testify!, The Best Of The Early Years (2000) [FLAC]\09 - Good Old Music.wav

Pre-gap length 0:00:06.30

Peak level 97.4 %
Track quality 100.0 %
Test CRC 5DF407B9
Copy CRC 5DF407B9
Copy OK

Track 10
Filename D:\FLAC\The Parliaments - Testify!, The Best Of The Early Years (2000) [FLAC]\10 - Time.wav

Pre-gap length 0:00:00.97

Peak level 90.2 %
Track quality 99.9 %
Test CRC F8680D65
Copy CRC F8680D65
Copy OK

Track 11
Filename D:\FLAC\The Parliaments - Testify!, The Best Of The Early Years (2000) [FLAC]\11 - A New Day Begins.wav

Pre-gap length 0:00:00.98

Peak level 100.0 %
Track quality 100.0 %
Test CRC 13131B64
Copy CRC 13131B64
Copy OK

Track 12
Filename D:\FLAC\The Parliaments - Testify!, The Best Of The Early Years (2000) [FLAC]\12 - I'll Wait.wav

Pre-gap length 0:00:00.97

Peak level 100.0 %
Track quality 99.9 %
Test CRC 147E2396
Copy CRC 147E2396
Copy OK

Track 13
Filename D:\FLAC\The Parliaments - Testify!, The Best Of The Early Years (2000) [FLAC]\13 - I'll Wait (instrumental).wav

Pre-gap length 0:00:00.97

Peak level 100.0 %
Track quality 100.0 %
Test CRC 1AC5A5B8
Copy CRC 1AC5A5B8
Copy OK

Track 14
Filename D:\FLAC\The Parliaments - Testify!, The Best Of The Early Years (2000) [FLAC]\14 - All Your Goodies Are Gone (instrumental).wav

Pre-gap length 0:00:00.97

Peak level 91.1 %
Track quality 100.0 %
Test CRC 869D3005
Copy CRC 869D3005
Copy OK

Track 15
Filename D:\FLAC\The Parliaments - Testify!, The Best Of The Early Years (2000) [FLAC]\15 - Baby I Owe You Something (instrumental).wav

Pre-gap length 0:00:00.97

Peak level 83.9 %
Track quality 100.0 %
Test CRC AF7F0E52
Copy CRC AF7F0E52
Copy OK

Track 16
Filename D:\FLAC\The Parliaments - Testify!, The Best Of The Early Years (2000) [FLAC]\16 - Let's Make It Last (The Fellows).wav

Pre-gap length 0:00:00.97

Peak level 90.0 %
Track quality 100.0 %
Test CRC 99BA1F33
Copy CRC 99BA1F33
Copy OK

Track 17
Filename D:\FLAC\The Parliaments - Testify!, The Best Of The Early Years (2000) [FLAC]\17 - She's Always There (The Fellows).wav

Pre-gap length 0:00:01.09

Peak level 92.7 %
Track quality 100.0 %
Test CRC 165BB843
Copy CRC 165BB843
Copy OK

Track 18
Filename D:\FLAC\The Parliaments - Testify!, The Best Of The Early Years (2000) [FLAC]\18 - Heart Trouble (demo).wav

Peak level 79.6 %
Track quality 100.0 %
Test CRC 57A255BA
Copy CRC 57A255BA
Copy OK

Track 19
Filename D:\FLAC\The Parliaments - Testify!, The Best Of The Early Years (2000) [FLAC]\19 - That Was My Girl (demo).wav

Pre-gap length 0:00:00.97

Peak level 88.3 %
Track quality 99.9 %
Test CRC 7C2C5956
Copy CRC 7C2C5956
Copy OK

No errors occured


End of status report


The Parliaments - Testify!: The Best Of The Early Years (2000)


Check out other titles in my Avaxhome blog.