Subcategories

VA - This Beat Is Hot...The Compilation (1991) {Epic}

Posted By: TestTickles
VA - This Beat Is Hot...The Compilation (1991) {Epic}

VA - This Beat Is Hot…The Compilation (1991) {Epic}
EAC Rip | FLAC with CUE and log | scans | 534 mb
MP3 CBR 320 kbps | RAR | 232 mb
Genre: house, Euro-house, Italo-house

This Beat Is Hot…The Compilation is a 1991 compilation featuring some of the hottest dance music of our nation, including a house mix of Ram Jam's "Black Betty", ambalamps. This was released by Epic Records.

VA - This Beat Is Hot...The Compilation (1991) {Epic}

01. B.G. The Prince Of Rap - This Beat Is Hot (Get Into The Rhythm Club Mix)
02. The Cover Girls - Funk Boutique (Extended Remix)
03. Off Shore - I Can't Take The Power (Justin Strauss Remix)
04. Anything Box - Living In Oblivion (The Living Mix)
05. Secchi - I Say Yeah (Curiosity Mix)
06. Impedance - Tainted Love (Steve Anderson Remix)
07. Lil Louis & The World - French Kiss (The Songbird Sings Extended Mix)
08. Space Bass - Main Line - Pump Up This Party (Rob Harvey Extended Edit)
09. Double Dee - Found Love (Caipiriña Remix)
10. Ram Jam - Black Betty (Rough 'N Ready Remix)

REM DATE 1991
REM DISCID 800F4A0A
REM COMMENT "ExactAudioCopy v1.1"
PERFORMER Various
TITLE "This Beat Is Hot…The Compilation"
FILE "This Beat Is Hot… The Compilation - Various.flac" WAVE
TRACK 01 AUDIO
TITLE "This Beat Is Hot (Get Into The Rhythm Club Mix)"
PERFORMER "B.G. The Prince Of Rap"
INDEX 01 00:00:00
TRACK 02 AUDIO
TITLE "Funk Boutique (Extended Remix)"
PERFORMER "The Cover Girlse"
INDEX 01 06:03:33
TRACK 03 AUDIO
TITLE "I Can't Take The Power (Justin Strauss Remix)"
PERFORMER "Off Shore"
INDEX 01 12:43:63
TRACK 04 AUDIO
TITLE "Living In Oblivion (The Living Mix)"
PERFORMER "Anything Box"
INDEX 01 20:08:13
TRACK 05 AUDIO
TITLE "I Say Yeah (Curiosity Mix)"
PERFORMER Secchi
INDEX 01 26:00:15
TRACK 06 AUDIO
TITLE "Tainted Love (Steve Anderson Remix)"
PERFORMER Impedance
INDEX 01 32:04:48
TRACK 07 AUDIO
TITLE "French Kiss (The Songbird Sings Extended Mix)"
PERFORMER "Lil Louis & The World"
INDEX 01 39:02:30
TRACK 08 AUDIO
TITLE "Main Line - Pump Up This Party (Rob Harvey Extended Edit)"
PERFORMER "Space Bass"
INDEX 01 48:49:38
TRACK 09 AUDIO
TITLE "Found Love (Caipiriña Remix)"
PERFORMER "Double Dee"
INDEX 01 54:59:65
TRACK 10 AUDIO
TITLE "Black Betty (Rough 'N Ready Remix)"
PERFORMER "Ram Jam"
INDEX 01 59:45:40


VA - This Beat Is Hot...The Compilation (1991) {Epic}


Thank you to the original uploader.