Subcategories

Telemann - La Changeante (Simon Standage)

Posted By: ArlegZ
Telemann - La Changeante (Simon Standage)

Simon Standage, Collegium Musicum 90 - Telemann: La Changeante (1991)
EAC | FLAC | Image (Cue & Log) ~ 312 Mb | Total time: 63:20 | Scans included
Classical | Label: Chandos | # CHAN 0519 | Recorded: 1991

Recorded in 1990 at Rosslyn Hill Chapel, Hampstead (London), this beautifully produced CD contains six lesser-known works for violin(s) by Germany’s most prolific 18th century composer, Georg Philipp Telemann, who was, during his lifetime, considerably more famous (and more in demand) than any of the Bach dynasty. But as Nicholas Anderson points out in his rather brief introduction to this music, “Telemann did not altogether avoid in his own music those features which he criticised in others; sometimes his harmonies seem sparse, his passagework perfunctory.” Telemann was a great musician, but the violin “seems to have been that in which he was least fluent”. It is also well-known that Telemann’s facility in composing has gained him a reputation for producing quantity rather than quality – a reputation which, on the whole, is undeserved.
For me personally, the highlight on the present disc by Simon Standage and the Collegium Musicum 90 is the Concerto in G Major for Four Unaccompanied Violins which closes with a wonderful Vivace movement in which the four soloists (Simon Standage himself, Micaela Comberti, Andrew Manze and Miles Golding) produce a series of delightful fanfares. The Flute and Violin Concerto (soloists Rachel Brown and Simon Standage) is also a piece very much worth the listening to, with some attractive melody and passage-work. The two violin concertos here recorded are both pleasant to listen to, but do not attain the stature of Bach’s Violin Concertos. The A Major Concerto for Four Violins and Basso Continuo seems to me to be a less significant piece, whilst the Orchestral Suite “La Changeante” after which the CD was named, although highly entertaining, is just one of a vast number of such suites that Telemann produced, as it seems quite effortlessly.
The Collegium Musicum 90 consists of five first violins, four second violins, two violas, two cellos, a double bass and a harpsichord. Among the musicians involved are many names that I seem to remember having seen on recordings by The English Concert and/or The Academy of Ancient Music, and there are, perhaps, certain similarities in the sound. Whereas Standage is always good on the fast movements, the slower ones tend to sound rather “English”, with a certain reservedness or nobility that makes Telemann, on occasion, sound more like Handel in his later oratorios than the composer who picked up a lot of ideas from Polish fiddlers. For this reason, I am giving the CD four stars instead of five, despite the fact that the recording, technically speaking, is impeccable.


Performer:
Collegium Musicum 90:
Rachel Brown flute
Andrew Manze - violin
Micaela Comberti - violin
Miles Golding - violin
Collegium Musicum 90
Simon Standage - violin & director

Track List:
1. Violin Concerto in A Minor: I. Adagio
2. II. Allegro
3. III. Presto
4. Flute and Violin Concerto in E Minor: I. Allegro
5. II. Adagio
6. III. Presto
7. IV. Adagio
8. V. Allegro
9. Concerto in G Major for Four Violins Unaccompanied: I. Largo e staccato
10. II. Allegro
11. III. Adagio
12. IV. Vivace
13. Concerto in A major for Four Violins: I. Affettuoso
14. II. Allegro
15. III. Adagio
16. IV. Allegro
17. La Changeante - Orchestral Suite in G Minor: I. Overture
18. II. Loure
19. III. Les Scaramouches
20. IV. Menuets I & II
21. V. La Plaisanterie
22. VI. Hornpipe
23. VII. Avec douceur
24. VIII. Canarie
25. Violin Concerto in E Major: I. Affettuoso
26. II. Allegro assai
27. III. Cantabile
28. IV. Allegro


Exact Audio Copy V0.99 prebeta 5 from 4. May 2009

EAC extraction logfile from 7. March 2011, 0:57

Simon Standage - Collegium Musicum 90 / Telemann - La Changeante

Used drive : PIONEER DVD-RW DVR-218L Adapter: 1 ID: 0

Read mode : Secure
Utilize accurate stream : Yes
Defeat audio cache : Yes
Make use of C2 pointers : No

Read offset correction : 6
Overread into Lead-In and Lead-Out : No
Fill up missing offset samples with silence : Yes
Delete leading and trailing silent blocks : No
Null samples used in CRC calculations : Yes
Used interface : Native Win32 interface for Win NT & 2000

Used output format : User Defined Encoder
Selected bitrate : 768 kBit/s
Quality : High
Add ID3 tag : No
Command line compressor : C:\Program Files\Exact Audio Copy\FLAC\FLAC.EXE
Additional command line options : -T "DATE=%y" -T "GENRE=%m" -8 -V %s


TOC of the extracted CD

Track | Start | Length | Start sector | End sector
––––––––––––––––––––––––––––-
1 | 0:00.33 | 3:09.05 | 33 | 14212
2 | 3:09.38 | 2:38.15 | 14213 | 26077
3 | 5:47.53 | 1:48.05 | 26078 | 34182
4 | 7:35.58 | 2:48.37 | 34183 | 46819
5 | 10:24.20 | 1:39.55 | 46820 | 54299
6 | 12:04.00 | 1:08.33 | 54300 | 59432
7 | 13:12.33 | 0:45.17 | 59433 | 62824
8 | 13:57.50 | 2:48.28 | 62825 | 75452
9 | 16:46.03 | 2:06.55 | 75453 | 84957
10 | 18:52.58 | 1:39.57 | 84958 | 92439
11 | 20:32.40 | 0:48.63 | 92440 | 96102
12 | 21:21.28 | 1:44.65 | 96103 | 103967
13 | 23:06.18 | 2:14.47 | 103968 | 114064
14 | 25:20.65 | 2:25.48 | 114065 | 124987
15 | 27:46.38 | 0:45.27 | 124988 | 128389
16 | 28:31.65 | 2:24.23 | 128390 | 139212
17 | 30:56.13 | 4:35.42 | 139213 | 159879
18 | 35:31.55 | 1:11.60 | 159880 | 165264
19 | 36:43.40 | 2:41.28 | 165265 | 177367
20 | 39:24.68 | 3:05.30 | 177368 | 191272
21 | 42:30.23 | 1:02.57 | 191273 | 195979
22 | 43:33.05 | 1:41.20 | 195980 | 203574
23 | 45:14.25 | 3:39.55 | 203575 | 220054
24 | 48:54.05 | 2:06.45 | 220055 | 229549
25 | 51:00.50 | 4:04.13 | 229550 | 247862
26 | 55:04.63 | 2:44.40 | 247863 | 260202
27 | 57:49.28 | 2:52.32 | 260203 | 273134
28 | 60:41.60 | 2:37.48 | 273135 | 284957


Range status and errors

Selected range

Filename C:\Telemann - La Changeante.wav

Peak level 79.5 %
Range quality 100.0 %
Test CRC 2DC9A9BE
Copy CRC 2DC9A9BE
Copy OK

No errors occurred


AccurateRip summary

Track 1 not present in database
Track 2 not present in database
Track 3 not present in database
Track 4 not present in database
Track 5 not present in database
Track 6 not present in database
Track 7 not present in database
Track 8 not present in database
Track 9 not present in database
Track 10 not present in database
Track 11 not present in database
Track 12 not present in database
Track 13 not present in database
Track 14 not present in database
Track 15 not present in database
Track 16 not present in database
Track 17 not present in database
Track 18 not present in database
Track 19 not present in database
Track 20 not present in database
Track 21 not present in database
Track 22 not present in database
Track 23 not present in database
Track 24 not present in database
Track 25 not present in database
Track 26 not present in database
Track 27 not present in database
Track 28 not present in database

None of the tracks are present in the AccurateRip database

End of status report