Tags
Language
Tags

T. Rex - The Best Of T. Rex (1998)

Posted By: popsakov
T. Rex - The Best Of T. Rex (1998)

T. Rex - The Best Of T. Rex (1998)
EAC Rip | FLAC (Img) + Cue + Log ~ 249 Mb | MP3 CBR320 ~ 98 Mb
Full Scans | 00:36:39 | RAR 5% Recovery
Glam Rock, Folk Rock | A&M Records #541 005-2

Originally released back in the very first flash of T.Rexstacy, in an age (hard to imagine now) when the shelves did not overflow with Bolanic compilations, the irresistibly budget-priced Fly Back: Best of Marc Bolan & T. Rex was many newfound fans' first exposure to the music Marc Bolan was making before he hit fame – and what a shock it was. Drawing from all four Tyrannosaurus Rex albums released between 1968-1969, plus a couple of unissued outtakes and single-only sides, Fly Back remains one of the most inspired, and illustrative, of all the collections out there. From the psychedelic folk of "Debora" to the guitar extravaganza "Elemental Child," from the proto-rock of "King of the Rumbling Spires" to the sweet insanity of "Strange Orchestras," Fly Back touches upon all the duo's musical facets, while weaving some of Bolan's most compulsive melodies into the framework, "Child Star," "Lofty Skies" and "Stacey Grove" included. With the full Tyrannosaurus Rex catalog now readily available in unexpurgated form, and sprawling compilations filling every corner of the collection, Fly Back looks like pretty slim pickings today; it's a mere 13 songs long, with minimal packaging. But play it and the magic comes flooding back regardless. All compilations should be this good.

~ Dave Thompson, All Music

***************

Track List:

01. Debora [3:12]
02. Child Star [2:53]
03. Cat Black (The Wizard's Hat) [2:56]
04. Conesuala [2:26]
05. Strange Orchestras [1:48]
06. Find a Little Wood [2:06]
07. Once Upon the Seas of Abyssinia [2:10]
08. One Inch Rock [1:45]
09. Salamanda Palaganda [2:16]
10. Lofty Skies [2:55]
11. Stacey Grove [2:00]
12. King of the Rumbling Spires [2:12]
13. Blessed Wild Apple Girl [2:35]
14. Elemental Child [5:34]

Exact Audio Copy V1.6 from 23. October 2020

EAC extraction logfile from 10. September 2021, 17:22

T. Rex / The Best of T. Rex

Used drive : ASUS SDRW-08D1S-U Adapter: 1 ID: 0

Read mode : Secure
Utilize accurate stream : Yes
Defeat audio cache : Yes
Make use of C2 pointers : No

Read offset correction : 667
Overread into Lead-In and Lead-Out : No
Fill up missing offset samples with silence : Yes
Delete leading and trailing silent blocks : No
Null samples used in CRC calculations : Yes
Used interface : Native Win32 interface for Win NT & 2000

Used output format : User Defined Encoder
Selected bitrate : 128 kBit/s
Quality : High
Add ID3 tag : No
Command line compressor : C:\Program Files (x86)\Exact Audio Copy\FLAC\FLAC.EXE
Additional command line options : -V -8 -T "Date=%year%" -T "Genre=%genre%" %source%


TOC of the extracted CD

Track | Start | Length | Start sector | End sector
––––––––––––––––––––––––––––-
1 | 0:00.00 | 3:11.58 | 0 | 14382
2 | 3:11.58 | 2:52.08 | 14383 | 27290
3 | 6:03.66 | 2:55.02 | 27291 | 40417
4 | 8:58.68 | 2:25.25 | 40418 | 51317
5 | 11:24.18 | 1:47.10 | 51318 | 59352
6 | 13:11.28 | 2:05.15 | 59353 | 68742
7 | 15:16.43 | 2:09.15 | 68743 | 78432
8 | 17:25.58 | 1:44.60 | 78433 | 86292
9 | 19:10.43 | 2:15.18 | 86293 | 96435
10 | 21:25.61 | 2:54.10 | 96436 | 109495
11 | 24:19.71 | 1:59.07 | 109496 | 118427
12 | 26:19.03 | 2:11.73 | 118428 | 128325
13 | 28:31.01 | 2:34.40 | 128326 | 139915
14 | 31:05.41 | 5:33.07 | 139916 | 164897


Range status and errors

Selected range

Filename C:\Users\1\OneDrive\Рабочий стол\T. Rex-The Best of T. Rex 1998\T. Rex - The Best of T. Rex.wav

Peak level 100.0 %
Extraction speed 3.5 X
Range quality 100.0 %
Test CRC 82ADD854
Copy CRC 82ADD854
Copy OK

No errors occurred


AccurateRip summary

Track 1 accurately ripped (confidence 6) [9B573BA4] (AR v2)
Track 2 accurately ripped (confidence 6) [EE73C2DB] (AR v2)
Track 3 accurately ripped (confidence 6) [1A8C9B56] (AR v2)
Track 4 accurately ripped (confidence 6) [61694917] (AR v2)
Track 5 accurately ripped (confidence 6) [9DF7A488] (AR v2)
Track 6 accurately ripped (confidence 6) [5E514662] (AR v2)
Track 7 accurately ripped (confidence 6) [C403FB1B] (AR v2)
Track 8 accurately ripped (confidence 6) [D286A325] (AR v2)
Track 9 accurately ripped (confidence 6) [9147506D] (AR v2)
Track 10 accurately ripped (confidence 6) [C7E262CA] (AR v2)
Track 11 accurately ripped (confidence 6) [16344174] (AR v2)
Track 12 accurately ripped (confidence 6) [353271B2] (AR v2)
Track 13 accurately ripped (confidence 6) [C2EC2A57] (AR v2)
Track 14 accurately ripped (confidence 6) [20851815] (AR v2)

All tracks accurately ripped

End of status report

–– CUETools DB Plugin V2.1.6

[CTDB TOCID: a3kGzqJWT_AppaF2RcD1W1QJMCM-] found
Submit result: a3kGzqJWT_AppaF2RcD1W1QJMCM- has been confirmed
Track | CTDB Status
1 | (31/31) Accurately ripped
2 | (31/31) Accurately ripped
3 | (31/31) Accurately ripped
4 | (31/31) Accurately ripped
5 | (30/31) Accurately ripped
6 | (31/31) Accurately ripped
7 | (31/31) Accurately ripped
8 | (31/31) Accurately ripped
9 | (31/31) Accurately ripped
10 | (31/31) Accurately ripped
11 | (31/31) Accurately ripped
12 | (31/31) Accurately ripped
13 | (31/31) Accurately ripped
14 | (31/31) Accurately ripped


==== Log checksum FA6B949C657E585F8ED66D2DCA34FAA8C889B07723C30DF35E6A19A0A9C3868E ====

[CUETools log; Date: 11.09.2021 1:42:33; Version: 2.1.6]
[CTDB TOCID: a3kGzqJWT_AppaF2RcD1W1QJMCM-] found.
Track | CTDB Status
1 | (32/32) Accurately ripped
2 | (32/32) Accurately ripped
3 | (32/32) Accurately ripped
4 | (32/32) Accurately ripped
5 | (31/32) Accurately ripped
6 | (32/32) Accurately ripped
7 | (32/32) Accurately ripped
8 | (32/32) Accurately ripped
9 | (32/32) Accurately ripped
10 | (32/32) Accurately ripped
11 | (32/32) Accurately ripped
12 | (32/32) Accurately ripped
13 | (32/32) Accurately ripped
14 | (32/32) Accurately ripped
[AccurateRip ID: 00120ff4-00be2306-c308960e] found.
Track [ CRC | V2 ] Status
01 [5381f616|9b573ba4] (04+06/22) Accurately ripped
02 [29dbe12a|ee73c2db] (04+06/22) Accurately ripped
03 [8071f96d|1a8c9b56] (04+06/22) Accurately ripped
04 [7d87e1e9|61694917] (04+06/22) Accurately ripped
05 [4b78357c|9df7a488] (04+06/22) Accurately ripped
06 [5422c5dc|5e514662] (04+06/22) Accurately ripped
07 [f9d7ff77|c403fb1b] (04+06/22) Accurately ripped
08 [34d1c9bc|d286a325] (04+06/22) Accurately ripped
09 [5fbcbe1b|9147506d] (04+06/22) Accurately ripped
10 [d9ae0087|c7e262ca] (04+06/22) Accurately ripped
11 [d90efe58|16344174] (04+06/22) Accurately ripped
12 [cf606b3c|353271b2] (04+06/22) Accurately ripped
13 [434f1696|c2ec2a57] (04+06/22) Accurately ripped
14 [6055835f|20851815] (04+06/22) Accurately ripped
Offsetted by -664:
01 [c9f4feae] (02/22) Accurately ripped
02 [a9e7ed9a] (02/22) Accurately ripped
03 [48d8f6cd] (02/22) Accurately ripped
04 [b1040f21] (02/22) Accurately ripped
05 [f111fff4] (02/22) Accurately ripped
06 [123a9cac] (02/22) Accurately ripped
07 [020f9767] (02/22) Accurately ripped
08 [1db2c1ec] (02/22) Accurately ripped
09 [9c4c775b] (02/22) Accurately ripped
10 [fb395fdf] (02/22) Accurately ripped
11 [2f19a360] (02/22) Accurately ripped
12 [4cea9d84] (02/22) Accurately ripped
13 [2470103e] (02/22) Accurately ripped
14 [639f18c7] (02/22) Accurately ripped
Offsetted by -2:
01 [f43ffe98] (06/22) Accurately ripped
02 [d947de1e] (06/22) Accurately ripped
03 [435cb1b5] (06/22) Accurately ripped
04 [424ff7a3] (06/22) Accurately ripped
05 [a87f9ca6] (06/22) Accurately ripped
06 [ed6212d8] (06/22) Accurately ripped
07 [0634b20b] (06/22) Accurately ripped
08 [a5540200] (06/22) Accurately ripped
09 [3d388c8b] (06/22) Accurately ripped
10 [9f2da699] (06/22) Accurately ripped
11 [71fe0fce] (06/22) Accurately ripped
12 [3bb4e222] (06/22) Accurately ripped
13 [167e3944] (06/22) Accurately ripped
14 [f904c55d] (06/22) Accurately ripped

Track Peak [ CRC32 ] [W/O NULL] [ LOG ]
– 100,0 [82ADD854] [2E2023BD] CRC32
01 83,3 [0CD87E7E] [CB1F4129]
02 91,8 [B16DAAEA] [11EC230F]
03 66,8 [C19424DB] [149AB302]
04 78,2 [17BF1F52] [09CF701A]
05 94,9 [6249FDE9] [EB6E7F21]
06 89,3 [ECA65ACB] [F5BC0654]
07 70,7 [B9311FDB] [68F26431]
08 68,7 [F3C7769C] [212EEE3B]
09 100,0 [03B7F192] [B48EE5B0]
10 69,0 [ABF6BA81] [AD5665D3]
11 72,7 [F4A55AEE] [72D39EAD]
12 99,2 [ABE8B579] [1F933929]
13 88,6 [B6D004E4] [530E8977]
14 73,5 [982A171F] [C4B1D4BF]

T. Rex - The Best Of T. Rex (1998)


All thanks go to Alex Fal

>>> T. Rex in my Blog <<<

DOWNLOAD: