Subcategories

Tricky - Angels With Dirty Faces (1998) {Island} [12 track edition]

Posted By: TestTickles
Tricky - Angels With Dirty Faces (1998) {Island} [12 track edition]

Tricky - Angels With Dirty Faces (1998) {Island} (12 track edition)
EAC Rip | FLAC with CUE and log | scans | 336 mb
MP3 CBR 320kbps | RAR | 125 mb
Genre: alternative, hip-hop, rap, downtempo

Angels With Dirty Faces is the 1998 album by British artist Tricky. This was released on Island Records and is the third album under the Tricky name.

Tricky - Angels With Dirty Faces (1998) {Island} [12 track edition]

01. Money Greedy
02. Mellow
03. Singin' The Blues
04. Broken Homes
05. 6 Minutes
06. Analyze Me
07. Moment I Feared
08. Talk To Me (Angels With Dirty Faces)
09. Carriage For Two
10. Demise
11. Tear Out My Eyes
12. Record Companies

Martina Topley-Bird-vocals (tracks 3, 5-6, 8-10)
PJ Harvey
-vocals (track 4)

Produced by Tricky
Mastered by Howie Weinberg

Exact Audio Copy V1.1 from 23. June 2015

EAC extraction logfile from 14. November 2016, 16:33

Tricky / Angels With Dirty Faces

Used drive : TEAC DVD-ROM DV-28SW Adapter: 1 ID: 0

Read mode : Secure
Utilize accurate stream : Yes
Defeat audio cache : Yes
Make use of C2 pointers : No

Read offset correction : 6
Overread into Lead-In and Lead-Out : No
Fill up missing offset samples with silence : Yes
Delete leading and trailing silent blocks : No
Null samples used in CRC calculations : Yes
Used interface : Native Win32 interface for Win NT & 2000
Gap handling : Appended to previous track

Used output format : Internal WAV Routines
Sample format : 44.100 Hz; 16 Bit; Stereo


TOC of the extracted CD

Track | Start | Length | Start sector | End sector
––––––––––––––––––––––––––––-
1 | 0:00.00 | 5:29.17 | 0 | 24691
2 | 5:29.17 | 3:33.33 | 24692 | 40699
3 | 9:02.50 | 3:27.22 | 40700 | 56246
4 | 12:29.72 | 3:33.53 | 56247 | 72274
5 | 16:03.50 | 4:46.20 | 72275 | 93744
6 | 20:49.70 | 4:00.27 | 93745 | 111771
7 | 24:50.22 | 4:03.23 | 111772 | 130019
8 | 28:53.45 | 4:28.27 | 130020 | 150146
9 | 33:21.72 | 4:44.18 | 150147 | 171464
10 | 38:06.15 | 3:48.15 | 171465 | 188579
11 | 41:54.30 | 4:25.65 | 188580 | 208519
12 | 46:20.20 | 4:22.25 | 208520 | 228194


Track 1

Filename C:\My Documents\My FLAC\Tricky - Angels With Dirty Faces (1998) [FLAC] {Island}\01 - Money Greedy.wav

Pre-gap length 0:00:02.00

Peak level 99.9 %
Extraction speed 2.9 X
Track quality 100.0 %
Test CRC 6D5A37DB
Copy CRC 6D5A37DB
Accurately ripped (confidence 45) [03F67FF3] (AR v2)
Copy OK

Track 2

Filename C:\My Documents\My FLAC\Tricky - Angels With Dirty Faces (1998) [FLAC] {Island}\02 - Mellow.wav

Peak level 99.9 %
Extraction speed 2.5 X
Track quality 99.9 %
Test CRC 7C71CAAC
Copy CRC 7C71CAAC
Accurately ripped (confidence 45) [429A9D64] (AR v2)
Copy OK

Track 3

Filename C:\My Documents\My FLAC\Tricky - Angels With Dirty Faces (1998) [FLAC] {Island}\03 - Singing The Blues.wav

Peak level 99.9 %
Extraction speed 2.6 X
Track quality 100.0 %
Test CRC BB282553
Copy CRC BB282553
Accurately ripped (confidence 45) [690D7222] (AR v2)
Copy OK

Track 4

Filename C:\My Documents\My FLAC\Tricky - Angels With Dirty Faces (1998) [FLAC] {Island}\04 - Broken Homes.wav

Peak level 99.9 %
Extraction speed 2.8 X
Track quality 100.0 %
Test CRC E4039317
Copy CRC E4039317
Accurately ripped (confidence 45) [2DE04B76] (AR v2)
Copy OK

Track 5

Filename C:\My Documents\My FLAC\Tricky - Angels With Dirty Faces (1998) [FLAC] {Island}\05 - 6 Minutes.wav

Pre-gap length 0:00:00.08

Peak level 99.9 %
Extraction speed 3.5 X
Track quality 100.0 %
Test CRC 463DE546
Copy CRC 463DE546
Accurately ripped (confidence 45) [8271CEA3] (AR v2)
Copy OK

Track 6

Filename C:\My Documents\My FLAC\Tricky - Angels With Dirty Faces (1998) [FLAC] {Island}\06 - Analyze Me.wav

Pre-gap length 0:00:00.25

Peak level 99.9 %
Extraction speed 3.3 X
Track quality 99.9 %
Test CRC BFD1C2C2
Copy CRC BFD1C2C2
Accurately ripped (confidence 45) [96D6F83A] (AR v2)
Copy OK

Track 7

Filename C:\My Documents\My FLAC\Tricky - Angels With Dirty Faces (1998) [FLAC] {Island}\07 - The Moment I Feared.wav

Peak level 99.9 %
Extraction speed 3.8 X
Track quality 100.0 %
Test CRC F62E1861
Copy CRC F62E1861
Accurately ripped (confidence 45) [D7A2416D] (AR v2)
Copy OK

Track 8

Filename C:\My Documents\My FLAC\Tricky - Angels With Dirty Faces (1998) [FLAC] {Island}\08 - Talk To Me (Angels With Dirty Faces).wav

Peak level 99.9 %
Extraction speed 3.8 X
Track quality 100.0 %
Test CRC A69D1D5C
Copy CRC A69D1D5C
Accurately ripped (confidence 45) [124BAAE2] (AR v2)
Copy OK

Track 9

Filename C:\My Documents\My FLAC\Tricky - Angels With Dirty Faces (1998) [FLAC] {Island}\09 - Carriage For Two.wav

Peak level 99.9 %
Extraction speed 4.5 X
Track quality 100.0 %
Test CRC 4605F4F3
Copy CRC 4605F4F3
Accurately ripped (confidence 44) [BA92153E] (AR v2)
Copy OK

Track 10

Filename C:\My Documents\My FLAC\Tricky - Angels With Dirty Faces (1998) [FLAC] {Island}\10 - Demise.wav

Peak level 99.9 %
Extraction speed 3.4 X
Track quality 100.0 %
Test CRC A131B5BD
Copy CRC A131B5BD
Accurately ripped (confidence 44) [B3251105] (AR v2)
Copy OK

Track 11

Filename C:\My Documents\My FLAC\Tricky - Angels With Dirty Faces (1998) [FLAC] {Island}\11 - Tear Out My Eyes.wav

Pre-gap length 0:00:00.48

Peak level 99.9 %
Extraction speed 3.1 X
Track quality 100.0 %
Test CRC E1746664
Copy CRC E1746664
Accurately ripped (confidence 44) [8385103C] (AR v2)
Copy OK

Track 12

Filename C:\My Documents\My FLAC\Tricky - Angels With Dirty Faces (1998) [FLAC] {Island}\12 - Record Companies.wav

Peak level 99.9 %
Extraction speed 4.3 X
Track quality 100.0 %
Test CRC 6D4DA140
Copy CRC 6D4DA140
Accurately ripped (confidence 43) [6DB6ED75] (AR v2)
Copy OK


All tracks accurately ripped

No errors occurred

End of status report

–– CUETools DB Plugin V2.1.6

[CTDB TOCID: TFnCDBGblhjQOeuFGQhKTeuMG8o-] found
Submit result: TFnCDBGblhjQOeuFGQhKTeuMG8o- has been confirmed
Track | CTDB Status
1 | (67/68) Accurately ripped
2 | (66/68) Accurately ripped
3 | (67/68) Accurately ripped
4 | (65/68) Accurately ripped
5 | (66/68) Accurately ripped
6 | (66/68) Accurately ripped
7 | (66/68) Accurately ripped
8 | (67/68) Accurately ripped
9 | (66/68) Accurately ripped
10 | (64/68) Accurately ripped
11 | (66/68) Accurately ripped
12 | (66/68) Accurately ripped


==== Log checksum D48222911AA8230D8D6D58F51F4F636457692778E99307108680ED37C7A94300 ====


Tricky - Angels With Dirty Faces (1998) {Island} [12 track edition]
NITROFLARE (FLAC)
NITROFLARE (MP3)