Tags
Language
Tags

Tangerine Dream - Green Desert [Recorded 1973] (1986) (Repost)

Posted By: gribovar
Tangerine Dream - Green Desert [Recorded 1973] (1986) (Repost)

Tangerine Dream - Green Desert [Recorded 1973] (1986)
EAC Rip | FLAC (image+.cue+log) - 217 MB | MP3 CBR 320 kbps (LAME 3.93) - 91 MB | Covers - 22 MB
Genre: Progressive Electronic, Berlin School | RAR 3% Rec. | Label: Jive (C TANG 1)

Originally recorded in 1973, Green Desert did not see the light of day until it was remixed and released as part of the In the Beginning box set in 1986, then as its own album later the same year. It is difficult to ascertain how radical this release is from the original recording, but as it stands, it is a logical step between the rawer-produced Atem to the ambient/sequencer-driven style of Phaedra. A key element of this is attributable to Edgar Froese's guitar playing on the title track, an unhurried solo that lasts only about five minutes in the nearly 20-minute piece, yet is easily the most memorable part of the entire song. None of the three shorter songs are as dynamic as the first, each containing a keyboard melody played over synthesized noises and the rhythms of drums, sequencers, or a series of chords.

Tracklist:
01. Green Desert
02. White Clouds
03. Astral Voyager
04. Indian Summer

Total time: 38:46

Exact Audio Copy V1.0 beta 1 from 15. November 2010

EAC extraction logfile from 23. November 2011, 20:20

Tangerine Dream / Green Desert

Used drive : TEAC CD-W552E Adapter: 1 ID: 1

Read mode : Secure
Utilize accurate stream : Yes
Defeat audio cache : Yes
Make use of C2 pointers : No

Read offset correction : 6
Overread into Lead-In and Lead-Out : No
Fill up missing offset samples with silence : Yes
Delete leading and trailing silent blocks : No
Null samples used in CRC calculations : Yes
Used interface : Installed external ASPI interface

Used output format : Internal WAV Routines
Sample format : 44.100 Hz; 16 Bit; Stereo


TOC of the extracted CD

Track | Start | Length | Start sector | End sector
––––––––––––––––––––––––––––-
1 | 0:00.32 | 19:32.00 | 32 | 87931
2 | 19:32.32 | 5:09.73 | 87932 | 111179
3 | 24:42.30 | 7:11.07 | 111180 | 143511
4 | 31:53.37 | 6:52.63 | 143512 | 174474


Range status and errors

Selected range

Filename Q:\Tangerine Dream - 1986 - Green Desert (Jive Records, C TANG 1)_Upload\Tangerine Dream - Green Desert.wav

Peak level 97.1 %
Extraction speed 1.4 X
Range quality 100.0 %
Test CRC 18B22A0C
Copy CRC 18B22A0C
Copy OK

No errors occurred


AccurateRip summary

Track 1 accurately ripped (confidence 13) [49A3D6FA]
Track 2 accurately ripped (confidence 13) [647CFEAF]
Track 3 accurately ripped (confidence 2) [501D7430]
Track 4 accurately ripped (confidence 2) [E474EF2B]

All tracks accurately ripped

End of status report

==== Log checksum D4CD3A5C9CE6E729F5B89C1FC7EFEFCD00E04F5E7D7298ABA8BE5FB5F67110C2 ====

[CUETools log; Date: 02.04.2021 13:18:13; Version: 2.1.4]
Pregap length 00:00:32.
[CTDB TOCID: XqnZcJyvbV32lK0qzeXrRCrhGpY-] found.
Track | CTDB Status
1 | (63/63) Accurately ripped
2 | (63/63) Accurately ripped
3 | (63/63) Accurately ripped
4 | (63/63) Accurately ripped
[AccurateRip ID: 0007e40b-001dd813-30091604] found.
Track [ CRC | V2 ] Status
01 [49a3d6fa|8fc6b224] (15+24/39) Accurately ripped
02 [647cfeaf|6f9dcbae] (15+24/39) Accurately ripped
03 [501d7430|a6783a1a] (14+25/39) Accurately ripped
04 [e474ef2b|e87b3d6e] (15+25/40) Accurately ripped
Offsetted by -1154:
01 [2583c97a] (00/39) No match (V2 was not tested)
02 [540872d1] (00/39) No match (V2 was not tested)
03 [25f53660] (00/39) No match (V2 was not tested)
04 [8e92d621] (00/40) No match (V2 was not tested)

Track Peak [ CRC32 ] [W/O NULL] [ LOG ]
– 97,1 [18B22A0C] [824C5735] CRC32
01 97,1 [2FB8EE54] [66762BCA]
02 87,4 [276D9F4C] [7830DC81]
03 81,0 [7F640F35] [4DE0FC64]
04 80,4 [36FE1508] [78994CE8]

Thanks to technick

See also:
Tangerine Dream - The Electronic Journey (2010) [10CD Box Set]
Tangerine Dream - The Dream Roots Collection [5CD Box Set] (1996)
Tangerine Dream - Electronic Meditation (1970) [Reissue 1996]
Tangerine Dream - Alpha Centauri (1971) [Reissue 1996]
Tangerine Dream - Alpha Centauri (1971) [Reissue 2011]
Tangerine Dream - Zeit (1972) [Reissue 1996]
Tangerine Dream - Atem (1973) [Reissue 2011]
Tangerine Dream - Phaedra (1974) [Original Edition]
Tangerine Dream - Phaedra (1974) [Definitive Edition 1995]
Tangerine Dream - Rubycon (1975) [Non-remastered, Reissue 1988]
Tangerine Dream - Rubycon (1975) [Definitive Edition 1995]
Tangerine Dream - Ricochet (1975) [Definitive Edition 1995]
Tangerine Dream - Stratosfear (1976) [Definitive Edition 1995]
Tangerine Dream - Encore (1977)
Tangerine Dream - Sorcerer (OST) (1977) [Reissue 2011]
Tangerine Dream - Force Majeure (1979) [Reissue 1995]
Tangerine Dream - Tangram (1980)
Tangerine Dream - Pergamon (1980) [Reissue 1996]
Tangerine Dream - White Eagle (1982) [Reissue 1995]
Tangerine Dream - Logos Live (1982) [Definitive Edition 1995]
Tangerine Dream - Hyperborea (1983)
Tangerine Dream - Wavelength [OST] (1983)
Tangerine Dream - Poland - The Warsaw Concert (1984) [Reissue 2011]
Tangerine Dream - Firestarter ...ion Picture Soundtrack] (1984)
Tangerine Dream - Underwater Sunlight (1986) [Reissue 1996]
Tangerine Dream - Legend (OST) (1986) [Reissue 1995]
Tangerine Dream - Tyger (1987) [Reissue 1996]
Tangerine Dream - Three O'Clock High [OST] (1987)
Tangerine Dream - Optical Race (1988)
Tangerine Dream - Live Miles (1988) [Reissue 2003]
Tangerine Dream - Lily On The Beach (1989)
Tangerine Dream - Melrose (1990)
Tangerine Dream - Dead Solid Perfect (OST) (1990)
Tangerine Dream - The Park Is Mine (OST) (1991)
Tangerine Dream - Rockoon (1992) [Reissue 2000]
Tangerine Dream - Deadly Care (OST) (1992)
Tangerine Dream - Quinoa (1992) [Reissue 2009]
Tangerine Dream - Catch Me If You Can (OST) (1994)
Tangerine Dream - Tyranny Of Beauty (1995)
Tangerine Dream - Goblins' Club (1996)
Tangerine Dream - Zoning (OST) (1996)
Tangerine Dream - The Analogue Space Years 1969-1973 (1998)
Tangerine Dream - The Hollywood Years Vol. 1 (1998)
Tangerine Dream - The Hollywood Years Vol. 2 (1998)
Tangerine Dream - Antique Dreams (2000)
Tangerine Dream - Soundmill Navigator (2000)
Tangerine Dream - The Bootleg Box Set Vol. 1 [7CD] (2003)
Tangerine Dream - Purgatorio (2004)
Tangerine Dream - Arizona Live '92 (2004) [Reissue 2009]
Tangerine Dream - Phaedra 2005 (2005) [Japanese Edition 2009]
Tangerine Dream - Cleveland - June 24th 1986 (2005)
Tangerine Dream - Blue Dawn (2006)
Tangerine Dream - The Essential Tangerine Dream (2006)
Tangerine Dream - Plays Tangerine Dream (2006)
Tangerine Dream - Springtime In Nagasaki (2007)
Tangerine Dream - Views From A Red Train (2008)
Tangerine Dream - Booster (2008)
Tangerine Dream - Booster Vol. 2 (2008)
Tangerine Dream - The Antholog... Space Years Volume One (2008)
Tangerine Dream - Music For Sports: Cool Races (2009)
Tangerine Dream - Music For Sports: Power And Motion (2009)
Tangerine Dream - DM V (Dream Mixes V) (2010)
Tangerine Dream - The London Eye Concert (2010)
Tangerine Dream - Zeitgeist Concert [3CD Box Set] (2010)
Tangerine Dream - The Virgin Years 1974-1978 [3CD Box Set] (2011)
Tangerine Dream - The Official...ies Vol.1 [4CD Box Set] (2015)
Tangerine Dream - Live At Coventry Cathedral 1975 (2007) [DVD]
Tangerine Dream - Madcap's Flaming Duty [DVD] (2007)
Tangerine Dream - 35th Phaedra Anniversary Concert [2DVD] (2007)
Edgar Froese - 2 Albums (1974-1995)
Edgar Froese - Ages (1978) [Reissue 1997]
Edgar Froese - Pinnacles (1983)