Subcategories
Please register here if you want to download anything!

If domain in your address bar is different from the list below
PLEASE LEAVE THAT SITE IMMEDIATELY
❗IT'S A DANGEROUS FAKE❗



Spicy Magazines for Men! ;-)

Tangerine Dream - In Search Of Hades: The Virgin Recordings 1973-1979 (2019) [16CD + 2 Blu-ray Box Set]

Posted By: v3122
Tangerine Dream - In Search Of Hades: The Virgin Recordings 1973-1979 (2019) [16CD + 2 Blu-ray Box Set]

Lazy Cowgirls - Tapping The Source (1987)
EAC | Flac(Image) + Cue + Log & MP3 CBR 320Kbps
Bomp! Records / BCD-4025 | ~ 211 or 70 Mb | Scans(jpg) -> 15 Mb
Punk Rock

Limited 18 disc (16 CDs + two Blu-ray) set. Tangerine Dream were one of the true pioneers of electronic and ambient music and the albums they recorded for Virgin Records between 1973 and 1979 remain classics of the genre. In Search of Hades: The Virgin Recordings 1973 - 1979 is the definitive statement of this period in Tangerine Dream's history, featuring newly remastered versions of the albums Phaedra, Rubycon, Ricochet, Stratosfear, Encore, Cyclone and Force Majeure all drawn from the original first-generation master tapes, and new stereo and 5.1 surround sound mixes of Phaedra and Ricochet by Steven Wilson. In Search of Hades includes eight CDs of previously unreleased material; three London concerts in full (Victoria Palace Theatre in 1974, The Rainbow Theatre in 1974 and Royal Albert Hall in 1975) along with the previously unreleased full soundtrack to Oedipus Tyrannus, recorded in July 1974 and remixed in 5.1 surround sound and stereo by Steven Wilson. Also includes two CDs of previously unreleased outtakes from the Phaedra sessions at The Manor Studios, Oxfordshire in November 1973 and the surviving 35-minute live recording from Coventry Cathedral in October 1975. The box set features two Blu-ray discs featuring the 5.1 mixes of Phaedra, Oedipus Tyrannus and Ricochet, along with a 1976 German TV performance and BBC Old Grey Whistle Test broadcast of Tangerine Dream at Coventry Cathedral. In Search of Hades is lavishly packaged with a hardback book featuring new liner notes and rare photographs and memorabilia.

~ amazon
Tangerine Dream - In Search Of Hades: The Virgin Recordings 1973-1979 (2019) [16CD + 2 Blu-ray Box Set]

Tangerine Dream - In Search Of Hades: The Virgin Recordings 1973-1979 (2019):

Tracklist CD1 - 1974 Phaedra:

01 Phaedra
02 Mysterious Semblance At The Strand Of Nightmares
03 Movements Of A Visionary
04 Sequent C'
Bonus Tracks
(Steven Wilson 2018 Stereo Remixes)
05 Phaedra
06 Sequent C'

Exact Audio Copy V1.3 from 2. September 2016

EAC extraction logfile from 23. July 2019, 20:03

Tangerine Dream / Phaedra

Used drive : Optiarc DVD RW AD-7280S Adapter: 1 ID: 0

Read mode : Secure
Utilize accurate stream : Yes
Defeat audio cache : Yes
Make use of C2 pointers : No

Read offset correction : 48
Overread into Lead-In and Lead-Out : No
Fill up missing offset samples with silence : Yes
Delete leading and trailing silent blocks : No
Null samples used in CRC calculations : Yes
Used interface : Native Win32 interface for Win NT & 2000

Used output format : Internal WAV Routines
Sample format : 44.100 Hz; 16 Bit; Stereo


TOC of the extracted CD

Track | Start | Length | Start sector | End sector
––––––––––––––––––––––––––––-
1 | 0:00.00 | 17:40.21 | 0 | 79520
2 | 17:40.21 | 9:45.17 | 79521 | 123412
3 | 27:25.38 | 7:58.33 | 123413 | 159295
4 | 35:23.71 | 2:24.61 | 159296 | 170156
5 | 37:48.57 | 17:42.47 | 170157 | 249853
6 | 55:31.29 | 2:21.68 | 249854 | 260496


Range status and errors

Selected range

Filename C:\Users\Alex\Desktop\ALLexxess\Tangerine Dream\2019 In Search Of Hades (18-Disc Box Set Universal Music)\CD01 1974 Phaedra\Tangerine Dream - Phaedra.wav

Peak level 99.5 %
Extraction speed 4.1 X
Range quality 100.0 %
Test CRC 745BAA2E
Copy CRC 745BAA2E
Copy OK

No errors occurred


AccurateRip summary

Track 1 accurately ripped (confidence 3) [B1342B06] (AR v2)
Track 2 accurately ripped (confidence 3) [0D248A7A] (AR v2)
Track 3 accurately ripped (confidence 3) [391B4680] (AR v2)
Track 4 accurately ripped (confidence 3) [8691D736] (AR v2)
Track 5 accurately ripped (confidence 2) [783C8870] (AR v2)
Track 6 accurately ripped (confidence 2) [F7BC8F83] (AR v2)

All tracks accurately ripped

End of status report

–– CUETools DB Plugin V2.1.6

[CTDB TOCID: MyQv5fzv3ZqzPs5cjD4IRZzQOGA-] found
Submit result: MyQv5fzv3ZqzPs5cjD4IRZzQOGA- has been confirmed
Track | CTDB Status
1 | (85/87) Accurately ripped
2 | (86/87) Accurately ripped
3 | (84/87) Accurately ripped
4 | (87/87) Accurately ripped
5 | (83/87) Accurately ripped
6 | (84/87) Accurately ripped


==== Log checksum 2639F933C67E46BE4F1FA07D9B2BEBE4AFC485678CAC41072979008F942B0DBA ====


Tracklist CD2 - 1973 Phaedra Out-Takes:

01 2nd Day
02 Flute Organ Piece
03 Phaedra Out-Take Version 2A

Exact Audio Copy V1.3 from 2. September 2016

EAC extraction logfile from 23. July 2019, 19:21

Tangerine Dream / Phaedra Out-Takes 1

Used drive : Optiarc DVD RW AD-7280S Adapter: 1 ID: 0

Read mode : Secure
Utilize accurate stream : Yes
Defeat audio cache : Yes
Make use of C2 pointers : No

Read offset correction : 48
Overread into Lead-In and Lead-Out : No
Fill up missing offset samples with silence : Yes
Delete leading and trailing silent blocks : No
Null samples used in CRC calculations : Yes
Used interface : Native Win32 interface for Win NT & 2000

Used output format : Internal WAV Routines
Sample format : 44.100 Hz; 16 Bit; Stereo


TOC of the extracted CD

Track | Start | Length | Start sector | End sector
––––––––––––––––––––––––––––-
1 | 0:00.00 | 20:34.14 | 0 | 92563
2 | 20:34.14 | 11:00.29 | 92564 | 142092
3 | 31:34.43 | 20:37.47 | 142093 | 234914


Range status and errors

Selected range

Filename C:\Users\Alex\Desktop\ALLexxess\Tangerine Dream\2019 In Search Of Hades (18-Disc Box Set Universal Music)\CD02-03 1973 Phaedra Out-Takes\Tangerine Dream - Phaedra Out-Takes 1.wav

Peak level 98.9 %
Extraction speed 7.2 X
Range quality 100.0 %
Test CRC 90232ED9
Copy CRC 90232ED9
Copy OK

No errors occurred


AccurateRip summary

Track 1 not present in database
Track 2 not present in database
Track 3 not present in database

None of the tracks are present in the AccurateRip database

End of status report

–– CUETools DB Plugin V2.1.6

[CTDB TOCID: fYPELfPb5VrJDUqvt43icrbMZks-] found
Submit result: fYPELfPb5VrJDUqvt43icrbMZks- has been confirmed
Track | CTDB Status
1 | (74/74) Accurately ripped
2 | (74/74) Accurately ripped
3 | (71/74) Accurately ripped


==== Log checksum 979EB471BBA358542677552BF34DC792543A55947E45789B127240CF0DEB3BAF ====


Tracklist CD3 - 1973 Phaedra Out-Takes:

01 Phaedra Out-Take 1
02 Phaedra Out-Take 2B
03 2nd Side Piece 1
04 2nd Side Piece 2
05 Organ Piece

Exact Audio Copy V1.3 from 2. September 2016

EAC extraction logfile from 23. July 2019, 17:42

Tangerine Dream / Phaedra Out-Takes 2

Used drive : Optiarc DVD RW AD-7280S Adapter: 1 ID: 0

Read mode : Secure
Utilize accurate stream : Yes
Defeat audio cache : Yes
Make use of C2 pointers : No

Read offset correction : 48
Overread into Lead-In and Lead-Out : No
Fill up missing offset samples with silence : Yes
Delete leading and trailing silent blocks : No
Null samples used in CRC calculations : Yes
Used interface : Native Win32 interface for Win NT & 2000

Used output format : Internal WAV Routines
Sample format : 44.100 Hz; 16 Bit; Stereo


TOC of the extracted CD

Track | Start | Length | Start sector | End sector
––––––––––––––––––––––––––––-
1 | 0:00.00 | 11:46.17 | 0 | 52966
2 | 11:46.17 | 5:44.26 | 52967 | 78792
3 | 17:30.43 | 13:05.01 | 78793 | 137668
4 | 30:35.44 | 9:20.34 | 137669 | 179702
5 | 39:56.03 | 5:49.63 | 179703 | 205940


Range status and errors

Selected range

Filename C:\Users\Alex\Desktop\ALLexxess\Tangerine Dream\2019 In Search Of Hades (18-Disc Box Set Universal Music)\CD02-03 1973 Phaedra Out-Takes\Tangerine Dream - Phaedra Out-Takes 2.wav

Peak level 99.2 %
Extraction speed 3.7 X
Range quality 100.0 %
Test CRC CCDD97D2
Copy CRC CCDD97D2
Copy OK

No errors occurred


AccurateRip summary

Track 1 not present in database
Track 2 not present in database
Track 3 not present in database
Track 4 not present in database
Track 5 not present in database

None of the tracks are present in the AccurateRip database

End of status report

–– CUETools DB Plugin V2.1.6

[CTDB TOCID: Vv3uzlEH5OQ1LCHvciEwgFJxGmI-] found
Submit result: Vv3uzlEH5OQ1LCHvciEwgFJxGmI- has been confirmed
Track | CTDB Status
1 | (79/79) Accurately ripped
2 | (79/79) Accurately ripped
3 | (79/79) Accurately ripped
4 | (79/79) Accurately ripped
5 | (78/79) Accurately ripped


==== Log checksum CAE211F526084E0059BB17CDF0E05CCB1BAF3AE752A0812BBACE17C31AE5A541 ====


Tracklist CD4 - 1974 Live At The Victoria Palace Theatre, London:

01 Victoria Palace Concert: Part 1

Exact Audio Copy V1.3 from 2. September 2016

EAC extraction logfile from 22. July 2019, 19:19

Tangerine Dream / Live At The Rainbow, London 1

Used drive : Optiarc DVD RW AD-7280S Adapter: 1 ID: 0

Read mode : Secure
Utilize accurate stream : Yes
Defeat audio cache : Yes
Make use of C2 pointers : No

Read offset correction : 48
Overread into Lead-In and Lead-Out : No
Fill up missing offset samples with silence : Yes
Delete leading and trailing silent blocks : No
Null samples used in CRC calculations : Yes
Used interface : Native Win32 interface for Win NT & 2000

Used output format : Internal WAV Routines
Sample format : 44.100 Hz; 16 Bit; Stereo


TOC of the extracted CD

Track | Start | Length | Start sector | End sector
––––––––––––––––––––––––––––-
1 | 0:00.00 | 2:36.25 | 0 | 11724
2 | 2:36.25 | 36:51.61 | 11725 | 177610
3 | 39:28.11 | 29:22.42 | 177611 | 309802


Range status and errors

Selected range

Filename C:\Users\Alex\Desktop\ALLexxess\Tangerine Dream\2019 In Search Of Hades (18-Disc Box Set Universal Music)\CD07-08 1974 Live At The Rainbow, London Part 1 & 2\Tangerine Dream - Live At The Rainbow, London 1.wav

Peak level 98.8 %
Extraction speed 7.0 X
Range quality 99.9 %
Test CRC 3B28CC0A
Copy CRC 3B28CC0A
Copy OK

No errors occurred


AccurateRip summary

Track 1 not present in database
Track 2 not present in database
Track 3 not present in database

None of the tracks are present in the AccurateRip database

End of status report

–– CUETools DB Plugin V2.1.6

[CTDB TOCID: kEqBvnJZLu3ZmNrBj1Vql5_tqJY-] found
Submit result: kEqBvnJZLu3ZmNrBj1Vql5_tqJY- has been confirmed
Track | CTDB Status
1 | (76/76) Accurately ripped
2 | (76/76) Accurately ripped
3 | (71/76) Accurately ripped


==== Log checksum 5D5F8A34C24267FD830E23BFA5EE28EB56C601067C255CD15069D0786C8A9984 ====


Tracklist CD5 - 1974 Live At The Victoria Palace Theatre, London:

01 Victoria Palace Concert: Part 2
02 Victoria Palace Concert: Encore

Exact Audio Copy V1.3 from 2. September 2016

EAC extraction logfile from 22. July 2019, 20:45

Tangerine Dream / Live At The Victoria Palace Theatre, London 2

Used drive : Optiarc DVD RW AD-7280S Adapter: 1 ID: 0

Read mode : Secure
Utilize accurate stream : Yes
Defeat audio cache : Yes
Make use of C2 pointers : No

Read offset correction : 48
Overread into Lead-In and Lead-Out : No
Fill up missing offset samples with silence : Yes
Delete leading and trailing silent blocks : No
Null samples used in CRC calculations : Yes
Used interface : Native Win32 interface for Win NT & 2000

Used output format : Internal WAV Routines
Sample format : 44.100 Hz; 16 Bit; Stereo


TOC of the extracted CD

Track | Start | Length | Start sector | End sector
––––––––––––––––––––––––––––-
1 | 0:00.00 | 28:16.01 | 0 | 127200
2 | 28:16.01 | 13:01.59 | 127201 | 185834


Range status and errors

Selected range

Filename C:\Users\Alex\Desktop\ALLexxess\Tangerine Dream\2019 In Search Of Hades (18-Disc Box Set Universal Music)\CD04-05 1974 Live Victoria Palace, London\Tangerine Dream - Live At The Victoria Palace Theatre, London 2.wav

Peak level 98.8 %
Extraction speed 7.1 X
Range quality 100.0 %
Test CRC 5FE39E09
Copy CRC 5FE39E09
Copy OK

No errors occurred


AccurateRip summary

Track 1 not present in database
Track 2 not present in database

None of the tracks are present in the AccurateRip database

End of status report

–– CUETools DB Plugin V2.1.6

[CTDB TOCID: KzWg700Me5x1bgyQNPP5t.zyXnE-] found
Submit result: KzWg700Me5x1bgyQNPP5t.zyXnE- has been confirmed
Track | CTDB Status
1 | (72/74) Accurately ripped
2 | (73/74) Accurately ripped


==== Log checksum 22EB5E0B8BAA54A13B185CFCFE551F98B54C2E191B4ECBDBF024573FDC115908 ====


Tracklist CD6 - 1974 Oedipus Tyrannus:

01 Overture
02 Act 1
03 Act 2: Battle
04 Act 2: Baroque
05 Act 2: Zeus
06 Act 3

Exact Audio Copy V1.3 from 2. September 2016

EAC extraction logfile from 22. July 2019, 20:19

Tangerine Dream / Oedipus Tyrannus

Used drive : Optiarc DVD RW AD-7280S Adapter: 1 ID: 0

Read mode : Secure
Utilize accurate stream : Yes
Defeat audio cache : Yes
Make use of C2 pointers : No

Read offset correction : 48
Overread into Lead-In and Lead-Out : No
Fill up missing offset samples with silence : Yes
Delete leading and trailing silent blocks : No
Null samples used in CRC calculations : Yes
Used interface : Native Win32 interface for Win NT & 2000

Used output format : Internal WAV Routines
Sample format : 44.100 Hz; 16 Bit; Stereo


TOC of the extracted CD

Track | Start | Length | Start sector | End sector
––––––––––––––––––––––––––––-
1 | 0:00.00 | 11:02.20 | 0 | 49669
2 | 11:02.20 | 16:45.00 | 49670 | 125044
3 | 27:47.20 | 10:10.25 | 125045 | 170819
4 | 37:57.45 | 8:55.45 | 170820 | 210989
5 | 46:53.15 | 5:43.19 | 210990 | 236733
6 | 52:36.34 | 22:09.10 | 236734 | 336418


Range status and errors

Selected range

Filename C:\Users\Alex\Desktop\ALLexxess\Tangerine Dream\2019 In Search Of Hades (18-Disc Box Set Universal Music)\CD06 1974 Oedipus Tyrannus\Tangerine Dream - Oedipus Tyrannus.wav

Peak level 99.3 %
Extraction speed 4.5 X
Range quality 100.0 %
Test CRC EE3048D4
Copy CRC EE3048D4
Copy OK

No errors occurred


AccurateRip summary

Track 1 not present in database
Track 2 not present in database
Track 3 not present in database
Track 4 not present in database
Track 5 not present in database
Track 6 not present in database

None of the tracks are present in the AccurateRip database

End of status report

–– CUETools DB Plugin V2.1.6

[CTDB TOCID: KhX0m6NWdJuz7sIG.rUD1mlFxCY-] found
Submit result: KhX0m6NWdJuz7sIG.rUD1mlFxCY- has been confirmed
Track | CTDB Status
1 | (74/74) Accurately ripped
2 | (74/74) Accurately ripped
3 | (74/74) Accurately ripped
4 | (74/74) Accurately ripped
5 | (73/74) Accurately ripped
6 | (68/74) Accurately ripped


==== Log checksum C2B55420B26A9EEE937891ECEFC67897A32805F00308218FB4AC9579826F436A ====


Tracklist CD7 - 1974 Live At The Rainbow, London:

01 Introduction By John Peel
02 Rainbow Concert: Part 1
03 Rainbow Concert: Part 2

Exact Audio Copy V1.3 from 2. September 2016

EAC extraction logfile from 22. July 2019, 19:19

Tangerine Dream / Live At The Rainbow, London 1

Used drive : Optiarc DVD RW AD-7280S Adapter: 1 ID: 0

Read mode : Secure
Utilize accurate stream : Yes
Defeat audio cache : Yes
Make use of C2 pointers : No

Read offset correction : 48
Overread into Lead-In and Lead-Out : No
Fill up missing offset samples with silence : Yes
Delete leading and trailing silent blocks : No
Null samples used in CRC calculations : Yes
Used interface : Native Win32 interface for Win NT & 2000

Used output format : Internal WAV Routines
Sample format : 44.100 Hz; 16 Bit; Stereo


TOC of the extracted CD

Track | Start | Length | Start sector | End sector
––––––––––––––––––––––––––––-
1 | 0:00.00 | 2:36.25 | 0 | 11724
2 | 2:36.25 | 36:51.61 | 11725 | 177610
3 | 39:28.11 | 29:22.42 | 177611 | 309802


Range status and errors

Selected range

Filename C:\Users\Alex\Desktop\ALLexxess\Tangerine Dream\2019 In Search Of Hades (18-Disc Box Set Universal Music)\CD07-08 1974 Live At The Rainbow, London Part 1 & 2\Tangerine Dream - Live At The Rainbow, London 1.wav

Peak level 98.8 %
Extraction speed 7.0 X
Range quality 99.9 %
Test CRC 3B28CC0A
Copy CRC 3B28CC0A
Copy OK

No errors occurred


AccurateRip summary

Track 1 not present in database
Track 2 not present in database
Track 3 not present in database

None of the tracks are present in the AccurateRip database

End of status report

–– CUETools DB Plugin V2.1.6

[CTDB TOCID: kEqBvnJZLu3ZmNrBj1Vql5_tqJY-] found
Submit result: kEqBvnJZLu3ZmNrBj1Vql5_tqJY- has been confirmed
Track | CTDB Status
1 | (76/76) Accurately ripped
2 | (76/76) Accurately ripped
3 | (71/76) Accurately ripped


==== Log checksum 5D5F8A34C24267FD830E23BFA5EE28EB56C601067C255CD15069D0786C8A9984 ====


Tracklist CD8 - 1974 Live At The Rainbow, London:

01 Rainbow Concert: Part 3
02 Rainbow Concert: Encore

Exact Audio Copy V1.3 from 2. September 2016

EAC extraction logfile from 22. July 2019, 16:57

Tangerine Dream / Live At The Rainbow, London 2

Used drive : PLEXTOR BD-R PX-B950SA Adapter: 1 ID: 1

Read mode : Secure
Utilize accurate stream : Yes
Defeat audio cache : Yes
Make use of C2 pointers : No

Read offset correction : 6
Overread into Lead-In and Lead-Out : No
Fill up missing offset samples with silence : Yes
Delete leading and trailing silent blocks : No
Null samples used in CRC calculations : Yes
Used interface : Native Win32 interface for Win NT & 2000

Used output format : Internal WAV Routines
Sample format : 44.100 Hz; 16 Bit; Stereo


TOC of the extracted CD

Track | Start | Length | Start sector | End sector
––––––––––––––––––––––––––––-
1 | 0:00.00 | 37:55.68 | 0 | 170692
2 | 37:55.68 | 12:27.09 | 170693 | 226726


Range status and errors

Selected range

Filename C:\Users\Alex\Desktop\ALLexxess\Tangerine Dream\2019 In Search Of Hades (18-Disc Box Set Universal Music)\CD07-08 1974 Live At The Rainbow, London Part 1 & 2\Tangerine Dream - Live At The Rainbow, London 2.wav

Peak level 98.8 %
Extraction speed 5.8 X
Range quality 100.0 %
Test CRC 8DE174B2
Copy CRC 8DE174B2
Copy OK

No errors occurred


AccurateRip summary

Track 1 not present in database
Track 2 not present in database

None of the tracks are present in the AccurateRip database

End of status report

–– CUETools DB Plugin V2.1.6

[CTDB TOCID: pzpL.IQhHR_oy9pm.QOGUMYt_vA-] found
Submit result: pzpL.IQhHR_oy9pm.QOGUMYt_vA- has been confirmed
Track | CTDB Status
1 | (73/75) Accurately ripped
2 | (74/75) Accurately ripped


==== Log checksum 0072ED43FE402AB2E740BE2D88ACC52AA32F99A67D239C2CA9ABCDDEB3D61F2F ====


Tracklist CD9 - 1975 Rubycon:

01 Rubycon: Part 1
02 Rubycon: Part 2
Bonus Track
(Steven Wilson 2018 Stereo Remixes)
03 Rubycon (Extended Introduction)

Exact Audio Copy V1.3 from 2. September 2016

EAC extraction logfile from 21. July 2019, 17:49

Tangerine Dream / Rubycon

Used drive : PLEXTOR BD-R PX-B950SA Adapter: 1 ID: 1

Read mode : Secure
Utilize accurate stream : Yes
Defeat audio cache : Yes
Make use of C2 pointers : No

Read offset correction : 6
Overread into Lead-In and Lead-Out : No
Fill up missing offset samples with silence : Yes
Delete leading and trailing silent blocks : No
Null samples used in CRC calculations : Yes
Used interface : Native Win32 interface for Win NT & 2000

Used output format : Internal WAV Routines
Sample format : 44.100 Hz; 16 Bit; Stereo


TOC of the extracted CD

Track | Start | Length | Start sector | End sector
––––––––––––––––––––––––––––-
1 | 0:00.00 | 17:17.33 | 0 | 77807
2 | 17:17.33 | 17:41.29 | 77808 | 157411
3 | 34:58.62 | 15:04.55 | 157412 | 225266


Range status and errors

Selected range

Filename C:\Users\Alex\Desktop\ALLexxess\Tangerine Dream\2019 In Search Of Hades (18-Disc Box Set Universal Music)\CD09 1975 Rubycon\Tangerine Dream - Rubycon.wav

Peak level 98.2 %
Extraction speed 6.8 X
Range quality 100.0 %
Test CRC 8B57769F
Copy CRC 8B57769F
Copy OK

No errors occurred


AccurateRip summary

Track 1 not present in database
Track 2 not present in database
Track 3 not present in database

None of the tracks are present in the AccurateRip database

End of status report

–– CUETools DB Plugin V2.1.6

[CTDB TOCID: mje6PcmbImfJfFa_jWmyjCauOuQ-] found
Submit result: mje6PcmbImfJfFa_jWmyjCauOuQ- has been confirmed
Track | CTDB Status
1 | (83/83) Accurately ripped
2 | (83/83) Accurately ripped
3 | (82/83) Accurately ripped


==== Log checksum 65C233C77527AB08E49D8DE58BD95A912D331360CC5DF314229E24E92CBCDEB9 ====


Tracklist CD10 - 1975 Royal Albert Hall, London:

01 Royal Albert Hall Concert: Part 1

Exact Audio Copy V1.3 from 2. September 2016

EAC extraction logfile from 21. July 2019, 17:05

Tangerine Dream / The Royal Albert Hall, London 1

Used drive : PLEXTOR BD-R PX-B950SA Adapter: 1 ID: 1

Read mode : Secure
Utilize accurate stream : Yes
Defeat audio cache : Yes
Make use of C2 pointers : No

Read offset correction : 6
Overread into Lead-In and Lead-Out : No
Fill up missing offset samples with silence : Yes
Delete leading and trailing silent blocks : No
Null samples used in CRC calculations : Yes
Used interface : Native Win32 interface for Win NT & 2000

Used output format : Internal WAV Routines
Sample format : 44.100 Hz; 16 Bit; Stereo


TOC of the extracted CD

Track | Start | Length | Start sector | End sector
––––––––––––––––––––––––––––-
1 | 0:00.00 | 70:33.26 | 0 | 317500


Range status and errors

Selected range

Filename C:\Users\Alex\Desktop\ALLexxess\Tangerine Dream\2019 In Search Of Hades (18-Disc Box Set Universal Music)\CD10-11 1975 Royal Albert Hall, London\Tangerine Dream - The Royal Albert Hall, London 1.wav

Peak level 98.8 %
Extraction speed 6.2 X
Range quality 99.9 %
Test CRC 6DB4EDCA
Copy CRC 6DB4EDCA
Copy OK

No errors occurred


AccurateRip summary

Track 1 not present in database

None of the tracks are present in the AccurateRip database

End of status report

–– CUETools DB Plugin V2.1.6

[CTDB TOCID: mx3x8hLqnfUOCfx.SAf3ZpsFWkM-] found
Submit result: mx3x8hLqnfUOCfx.SAf3ZpsFWkM- has been confirmed
Track | CTDB Status
1 | (64/69) Accurately ripped


==== Log checksum 797A526282FCE1001183C4F04BE92254BC7BFB947BEFF96765B470D05AAD99BA ====


Tracklist CD11 - 1975 Royal Albert Hall, London:

01 Royal Albert Hall Concert: Part 2
02 Royal Albert Hall Concert: Encore

Exact Audio Copy V1.3 from 2. September 2016

EAC extraction logfile from 21. July 2019, 16:16

Tangerine Dream / Royal Albert Hall, London 2

Used drive : PLEXTOR BD-R PX-B950SA Adapter: 1 ID: 1

Read mode : Secure
Utilize accurate stream : Yes
Defeat audio cache : Yes
Make use of C2 pointers : No

Read offset correction : 6
Overread into Lead-In and Lead-Out : No
Fill up missing offset samples with silence : Yes
Delete leading and trailing silent blocks : No
Null samples used in CRC calculations : Yes
Used interface : Native Win32 interface for Win NT & 2000

Used output format : Internal WAV Routines
Sample format : 44.100 Hz; 16 Bit; Stereo


TOC of the extracted CD

Track | Start | Length | Start sector | End sector
––––––––––––––––––––––––––––-
1 | 0:00.00 | 40:13.48 | 0 | 181022
2 | 40:13.48 | 13:46.38 | 181023 | 243010


Range status and errors

Selected range

Filename C:\Users\Alex\Desktop\ALLexxess\Tangerine Dream\2019 In Search Of Hades (18-Disc Box Set Universal Music)\CD10-11 1975 Royal Albert Hall, London\Tangerine Dream - Royal Albert Hall, London 2.wav

Peak level 98.8 %
Extraction speed 7.8 X
Range quality 99.9 %
Test CRC 5F44F5E2
Copy CRC 5F44F5E2
Copy OK

No errors occurred


AccurateRip summary

Track 1 not present in database
Track 2 not present in database

None of the tracks are present in the AccurateRip database

End of status report

–– CUETools DB Plugin V2.1.6

[CTDB TOCID: rxJ5cq2ajjwgEaEfGB0gg8rX8lc-] found
Submit result: rxJ5cq2ajjwgEaEfGB0gg8rX8lc- has been confirmed
Track | CTDB Status
1 | (69/69) Accurately ripped
2 | (69/69) Accurately ripped


==== Log checksum 99FEC2D5D348467E897FCF76053594F874ACB216DCD830EFB4468CE547B928BD ====


Tracklist CD12 - 1975 Ricochet:

01 Ricochet: Part 1
02 Ricochet: Part 2
Bonus Tracks
(Steven Wilson New Stereo Remixes)
03 Ricochet: Part 1
04 Ricochet: Part 2

Exact Audio Copy V1.3 from 2. September 2016

EAC extraction logfile from 21. July 2019, 11:21

Tangerine Dream / Ricochet

Used drive : PLEXTOR BD-R PX-B950SA Adapter: 1 ID: 1

Read mode : Secure
Utilize accurate stream : Yes
Defeat audio cache : Yes
Make use of C2 pointers : No

Read offset correction : 6
Overread into Lead-In and Lead-Out : No
Fill up missing offset samples with silence : Yes
Delete leading and trailing silent blocks : No
Null samples used in CRC calculations : Yes
Used interface : Native Win32 interface for Win NT & 2000

Used output format : Internal WAV Routines
Sample format : 44.100 Hz; 16 Bit; Stereo


TOC of the extracted CD

Track | Start | Length | Start sector | End sector
––––––––––––––––––––––––––––-
1 | 0:00.00 | 17:02.53 | 0 | 76702
2 | 17:02.53 | 21:10.52 | 76703 | 172004
3 | 38:13.30 | 17:09.38 | 172005 | 249217
4 | 55:22.68 | 21:21.55 | 249218 | 345347


Range status and errors

Selected range

Filename C:\Users\Alex\Desktop\ALLexxess\Tangerine Dream\2019 In Search Of Hades (18-Disc Box Set Universal Music)\CD12 1975 Ricochet\Tangerine Dream - Ricochet.wav

Peak level 99.3 %
Extraction speed 6.7 X
Range quality 99.9 %
Test CRC 71481853
Copy CRC 71481853
Copy OK

No errors occurred


AccurateRip summary

Track 1 not present in database
Track 2 not present in database
Track 3 not present in database
Track 4 not present in database

None of the tracks are present in the AccurateRip database

End of status report

–– CUETools DB Plugin V2.1.6

[CTDB TOCID: 6.BkU2Jdfkgj5E4gcGhTJ8v0Myc-] found
Submit result: 6.BkU2Jdfkgj5E4gcGhTJ8v0Myc- has been confirmed
Track | CTDB Status
1 | (74/74) Accurately ripped
2 | (74/74) Accurately ripped
3 | (74/74) Accurately ripped
4 | (70/74) Accurately ripped


==== Log checksum 543D162C623CDB4274AC5F3C25E97FCA958AD9FC21FC853432FD27A6F212E9E9 ====


Tracklist CD13 - 1976 Stratosfear:

01 Stratosfear
02 The Big Sleep In Search Of Hades
03 3AM At The Border Of The Marsh From Okefenokee
04 Invisible Limits
Bonus Tracks
05 Coventry Cathedral (The Original Film Soundtrack)
06 Stratosfear (Single Edit)
07 The Big Sleep In Search Of Hades (Single Edit)

Exact Audio Copy V1.3 from 2. September 2016

EAC extraction logfile from 21. July 2019, 10:44

Tangerine Dream / Stratosfear

Used drive : Optiarc DVD RW AD-7280S Adapter: 1 ID: 0

Read mode : Secure
Utilize accurate stream : Yes
Defeat audio cache : Yes
Make use of C2 pointers : No

Read offset correction : 48
Overread into Lead-In and Lead-Out : No
Fill up missing offset samples with silence : Yes
Delete leading and trailing silent blocks : No
Null samples used in CRC calculations : Yes
Used interface : Native Win32 interface for Win NT & 2000

Used output format : Internal WAV Routines
Sample format : 44.100 Hz; 16 Bit; Stereo


TOC of the extracted CD

Track | Start | Length | Start sector | End sector
––––––––––––––––––––––––––––-
1 | 0:00.00 | 10:35.55 | 0 | 47679
2 | 10:35.55 | 4:31.19 | 47680 | 68023
3 | 15:06.74 | 8:48.22 | 68024 | 107645
4 | 23:55.21 | 11:30.24 | 107646 | 159419
5 | 35:25.45 | 34:07.08 | 159420 | 312952
6 | 69:32.53 | 4:20.33 | 312953 | 332485
7 | 73:53.11 | 3:24.37 | 332486 | 347822


Range status and errors

Selected range

Filename C:\Users\Alex\Desktop\ALLexxess\Tangerine Dream\2019 In Search Of Hades (18-Disc Box Set Universal Music)\CD13 1976 Stratosfear\Tangerine Dream - Stratosfear.wav

Peak level 98.6 %
Extraction speed 4.6 X
Range quality 100.0 %
Test CRC A1810025
Copy CRC A1810025
Copy OK

No errors occurred


AccurateRip summary

Track 1 not present in database
Track 2 not present in database
Track 3 not present in database
Track 4 not present in database
Track 5 not present in database
Track 6 not present in database
Track 7 not present in database

None of the tracks are present in the AccurateRip database

End of status report

–– CUETools DB Plugin V2.1.6

[CTDB TOCID: M_O8kvOeNNM_9Wbxckw9WTTkho0-] found
Submit result: M_O8kvOeNNM_9Wbxckw9WTTkho0- has been confirmed
Track | CTDB Status
1 | (71/72) Accurately ripped
2 | (72/72) Accurately ripped
3 | (72/72) Accurately ripped
4 | (72/72) Accurately ripped
5 | (66/72) Accurately ripped
6 | (70/72) Accurately ripped
7 | (68/72) Accurately ripped


==== Log checksum F6D3D630A6DB6169F2787725DE63A69F5ABA7BF7544B618BD5DFDA9AABDFE7AC ====


Tracklist CD14 - 1977 Encore:

01 Cherokee Lane
02 Monolight
03 Coldwater Canyon
04 Desert Dream
Bonus Tracks
05 Encore
06 Hobo March

Exact Audio Copy V1.3 from 2. September 2016

EAC extraction logfile from 21. July 2019, 9:37

Tangerine Dream / Encore

Used drive : Optiarc DVD RW AD-7280S Adapter: 1 ID: 0

Read mode : Secure
Utilize accurate stream : Yes
Defeat audio cache : Yes
Make use of C2 pointers : No

Read offset correction : 48
Overread into Lead-In and Lead-Out : No
Fill up missing offset samples with silence : Yes
Delete leading and trailing silent blocks : No
Null samples used in CRC calculations : Yes
Used interface : Native Win32 interface for Win NT & 2000

Used output format : Internal WAV Routines
Sample format : 44.100 Hz; 16 Bit; Stereo


TOC of the extracted CD

Track | Start | Length | Start sector | End sector
––––––––––––––––––––––––––––-
1 | 0:00.00 | 16:27.25 | 0 | 74049
2 | 16:27.25 | 19:56.42 | 74050 | 163791
3 | 36:23.67 | 18:08.13 | 163792 | 245404
4 | 54:32.05 | 17:55.15 | 245405 | 326044
5 | 72:27.20 | 3:16.63 | 326045 | 340807
6 | 75:44.08 | 4:49.26 | 340808 | 362508


Range status and errors

Selected range

Filename C:\Users\Alex\Desktop\ALLexxess\Tangerine Dream\2019 In Search Of Hades (18-Disc Box Set Universal Music)\CD14 1977 Encore\Tangerine Dream - Encore.wav

Peak level 98.6 %
Extraction speed 4.7 X
Range quality 100.0 %
Test CRC E4D3A826
Copy CRC E4D3A826
Copy OK

No errors occurred


AccurateRip summary

Track 1 not present in database
Track 2 not present in database
Track 3 not present in database
Track 4 not present in database
Track 5 not present in database
Track 6 not present in database

None of the tracks are present in the AccurateRip database

End of status report

–– CUETools DB Plugin V2.1.6

[CTDB TOCID: sINzif8lge76.6xmXoodpelmNMg-] found
Submit result: sINzif8lge76.6xmXoodpelmNMg- has been confirmed
Track | CTDB Status
1 | (68/68) Accurately ripped
2 | (68/68) Accurately ripped
3 | (68/68) Accurately ripped
4 | (67/68) Accurately ripped
5 | (68/68) Accurately ripped
6 | (67/68) Accurately ripped


==== Log checksum 218A057E50289DCCD39DE12C914F37521ADF45DECE6A0358ABCB9D23C54487E7 ====


Tracklist CD15 - 1978 Cyclone:

01 Bent Cold Sidewalk
02 Rising Runner Missed By Endless Sender
03 Madrigal Meridian
Bonus Tracks
04 Haunted Heights
05 Baryll Blue

Exact Audio Copy V1.3 from 2. September 2016

EAC extraction logfile from 20. July 2019, 18:45

Tangerine Dream / Cyclone

Used drive : PLEXTOR BD-R PX-B950SA Adapter: 1 ID: 1

Read mode : Secure
Utilize accurate stream : Yes
Defeat audio cache : Yes
Make use of C2 pointers : No

Read offset correction : 6
Overread into Lead-In and Lead-Out : No
Fill up missing offset samples with silence : Yes
Delete leading and trailing silent blocks : No
Null samples used in CRC calculations : Yes
Used interface : Native Win32 interface for Win NT & 2000

Used output format : Internal WAV Routines
Sample format : 44.100 Hz; 16 Bit; Stereo


TOC of the extracted CD

Track | Start | Length | Start sector | End sector
––––––––––––––––––––––––––––-
1 | 0:00.00 | 13:10.59 | 0 | 59308
2 | 13:10.59 | 5:05.31 | 59309 | 82214
3 | 18:16.15 | 20:35.66 | 82215 | 174905
4 | 38:52.06 | 6:12.56 | 174906 | 202861
5 | 45:04.62 | 7:19.73 | 202862 | 235859


Range status and errors

Selected range

Filename C:\Users\Alex\Desktop\ALLexxess\Tangerine Dream\2019 In Search Of Hades (18-Disc Box Set Universal Music)\CD15 1978 Cyclone\Tangerine Dream - Cyclone.wav

Peak level 98.6 %
Extraction speed 7.2 X
Range quality 100.0 %
Test CRC 54BEBF81
Copy CRC 54BEBF81
Copy OK

No errors occurred


AccurateRip summary

Track 1 not present in database
Track 2 not present in database
Track 3 not present in database
Track 4 not present in database
Track 5 not present in database

None of the tracks are present in the AccurateRip database

End of status report

–– CUETools DB Plugin V2.1.6

[CTDB TOCID: 30FefKalAQ.5ZzM5.sgPE7h4eoA-] found
Submit result: 30FefKalAQ.5ZzM5.sgPE7h4eoA- has been confirmed
Track | CTDB Status
1 | (72/72) Accurately ripped
2 | (72/72) Accurately ripped
3 | (72/72) Accurately ripped
4 | (72/72) Accurately ripped
5 | (72/72) Accurately ripped


==== Log checksum AA5203CD40AE7B3F61385D30C8E07A35CC779A330A3B09617C4AB119A6101ED1 ====


Tracklist CD16 - 1979 Force Majeure:

01 Force Majeure
02 Cloudburst Flight
03 Thru Metamorphic Rocks
Bonus Track
04 Chimes And Chains

Exact Audio Copy V1.3 from 2. September 2016

EAC extraction logfile from 20. July 2019, 18:12

Tangerine Dream / Force Majeure

Used drive : PLEXTOR BD-R PX-B950SA Adapter: 1 ID: 1

Read mode : Secure
Utilize accurate stream : Yes
Defeat audio cache : Yes
Make use of C2 pointers : No

Read offset correction : 6
Overread into Lead-In and Lead-Out : No
Fill up missing offset samples with silence : Yes
Delete leading and trailing silent blocks : No
Null samples used in CRC calculations : Yes
Used interface : Native Win32 interface for Win NT & 2000

Used output format : Internal WAV Routines
Sample format : 44.100 Hz; 16 Bit; Stereo


TOC of the extracted CD

Track | Start | Length | Start sector | End sector
––––––––––––––––––––––––––––-
1 | 0:00.00 | 18:21.72 | 0 | 82646
2 | 18:21.72 | 7:28.43 | 82647 | 116289
3 | 25:50.40 | 14:35.41 | 116290 | 181955
4 | 40:26.06 | 4:47.53 | 181956 | 203533


Range status and errors

Selected range

Filename C:\Users\Alex\Desktop\ALLexxess\Tangerine Dream\2019 In Search Of Hades (18-Disc Box Set Universal Music)\CD16 1979 Force Majeure\Tangerine Dream - Force Majeure.wav

Peak level 98.6 %
Extraction speed 4.3 X
Range quality 99.9 %
Test CRC 82A37D4A
Copy CRC 82A37D4A
Copy OK

No errors occurred


AccurateRip summary

Track 1 not present in database
Track 2 not present in database
Track 3 not present in database
Track 4 not present in database

None of the tracks are present in the AccurateRip database

End of status report

–– CUETools DB Plugin V2.1.6

[CTDB TOCID: qz111Gfqr4fWUekeNJlN0lsxZWU-] found
Submit result: qz111Gfqr4fWUekeNJlN0lsxZWU- has been confirmed
Track | CTDB Status
1 | (74/75) Accurately ripped
2 | (75/75) Accurately ripped
3 | (75/75) Accurately ripped
4 | (75/75) Accurately ripped


==== Log checksum E49F0F4593B67CAE74EFBBD86A0AA91AF8A7AABCD8537CC23E5A2827A4D635D7 ====


Tracklist BD1:

Phaedra
5.1 Surround Sound Steven Wilson Mixes
01 Phaedra
02 Mysterious Semblance At The Strand Of Nightmares
03 Movements Of A Visionary
04 Sequent C'
Stereo Mixes 96/24 LPCM
05 Phaedra (2019 Remaster)
06 Mysterious Semblance At The Strand Of Nightmares (2019 Remaster)
07 Movements Of A Visionary (2019 Remaster)
08 Sequent C' (2019 Remaster)
09 Phaedra (Steven Wilson Remix)
10 Sequent C' (Steven Wilson Remix)
Oedipus Tyrannus
5.1 Surround Sound
96 Khz / 24-bit Stereo Steven Wilson Mixes
11 Overture
12 Act 1
13 Act 2: Battle
14 Act 2: Baroque
15 Act 2: Zeus
16 Act 3



Tracklist BD2:

Ricochet
5.1 Surround Sound
96 Khz / 24-bit Stereo Steven Wilson Mixes
01 Ricochet: Part 1
02 Ricochet: Part 2
Bonus Visual Content
03 Tangerine Dream At Coventry Cathedral
04 Signale Aus Der Schwäbischen Strasse



Tangerine Dream - In Search Of Hades: The Virgin Recordings 1973-1979 (2019) [16CD + 2 Blu-ray Box Set]

All thanks go to ALLexxess

Tangerine Dream in my Blog

Download Tangerine Dream - In Search Of Hades: The Virgin Recordings 1973-1979 (2019):