Tags
Language
Tags

Tangerine Dream - Alpha Centauri (1971) [Reissue 2011]

Posted By:
Tangerine Dream - Alpha Centauri (1971) [Reissue 2011]

Tangerine Dream - Alpha Centauri (1971) [Reissue 2011]
EAC Rip | FLAC (tracks+.cue+log) - 268 MB | MP3 CBR 320 kbps (LAME 3.93) - 131 MB | Covers - 43 MB
Genre: Progressive Electronic | RAR 3% Rec. | Label: Esoteric Reactive (EREACD 1021)

Esoteric recordings are pleased to announce the release of a newly remastered and expanded edition of Tangerine Dream’s classic 1971 album "Alpha Centauri". Recorded at the Dierks Studio in Stommeln, the album featured a line up of Edgar Froese, Chris Franke and Steve Schroyder with guests Udo Dennebourg (flute) and Roland Pualyck (synthesiser). Released in Germany on the OHR label, the influence of the album was immense, with the band creating imaginative sound-scapes previously unheard on record. This Esoteric Reactive edition is newly re-mastered and includes three bonus tracks: ‘Oszillator Planet Concert’ has never been released on CD and was issued as part of the 1971 double album “Ossiach Live”. Also included are both sides of the classic ‘Ultima Thule’ single issued in Germany in 1971. The release fully restores the original album artwork and includes a lavishly illustrated booklet.

Tracklist:
01. Sunrise Iin The Third System
02. Fly And Collision Of Comas Sola
03. Alpha Centauri
04. Oszillator Planet Concert (Bonus track)
05. Ultima Thule Part One (Bonus track)
06. Ultima Thule Part Two (Bonus track)

Total time: 55:43

Exact Audio Copy V1.0 beta 1 from 15. November 2010

EAC extraction logfile from 6. October 2011, 9:31

Tangerine Dream / Alpha Centauri (2011 Esoteric Remaster)

Used drive : TSSTcorpCDDVDW SH-222AL Adapter: 0 ID: 1

Read mode : Secure
Utilize accurate stream : Yes
Defeat audio cache : Yes
Make use of C2 pointers : No

Read offset correction : 6
Overread into Lead-In and Lead-Out : No
Fill up missing offset samples with silence : Yes
Delete leading and trailing silent blocks : No
Null samples used in CRC calculations : Yes
Used interface : Native Win32 interface for Win NT & 2000
Gap handling : Appended to previous track

Used output format : User Defined Encoder
Selected bitrate : 768 kBit/s
Quality : High
Add ID3 tag : No
Command line compressor : C:\Program Files\EAC\Flac\flac.exe
Additional command line options : -8 -V -T "ARTIST=%a" -T "TITLE=%t" -T "ALBUM=%g" -T "DATE=%y" -T "TRACKNUMBER=%n" -T "TOTALTRACKS=%x" -T "GENRE=%m" -T "ALBUMARTIST=%v" -T "ALBUM ARTIST=%v" -T "COMMENT=EAC Secure Mode, Test & Copy, AccurateRip, FLAC -8" %s


TOC of the extracted CD

Track | Start | Length | Start sector | End sector
––––––––––––––––––––––––––––-
1 | 0:00.00 | 4:21.56 | 0 | 19630
2 | 4:21.56 | 13:23.61 | 19631 | 79916
3 | 17:45.42 | 22:08.17 | 79917 | 179533
4 | 39:53.59 | 8:02.64 | 179534 | 215747
5 | 47:56.48 | 3:22.34 | 215748 | 230931
6 | 51:19.07 | 4:23.54 | 230932 | 250710


Track 1

Filename C:\LosslessII\Tangerine Dream - Alpha Centauri (1971) [FLAC] {2011 Esoteric Remaster}\01 - Sunrise in the Third System.wav

Pre-gap length 0:00:02.00

Peak level 99.4 %
Extraction speed 4.7 X
Track quality 100.0 %
Test CRC C4DEA622
Copy CRC C4DEA622
Track not present in AccurateRip database
Copy OK

Track 2

Filename C:\LosslessII\Tangerine Dream - Alpha Centauri (1971) [FLAC] {2011 Esoteric Remaster}\02 - Fly and Collision of Comas Sola.wav

Pre-gap length 0:00:00.44

Peak level 99.4 %
Extraction speed 6.2 X
Track quality 100.0 %
Test CRC AE19BF29
Copy CRC AE19BF29
Track not present in AccurateRip database
Copy OK

Track 3

Filename C:\LosslessII\Tangerine Dream - Alpha Centauri (1971) [FLAC] {2011 Esoteric Remaster}\03 - Alpha Centauri.wav

Pre-gap length 0:00:00.45

Peak level 99.2 %
Extraction speed 7.6 X
Track quality 99.9 %
Test CRC 2DCD9ED6
Copy CRC 2DCD9ED6
Track not present in AccurateRip database
Copy OK

Track 4

Filename C:\LosslessII\Tangerine Dream - Alpha Centauri (1971) [FLAC] {2011 Esoteric Remaster}\04 - Oszillator Planet Concert.wav

Pre-gap length 0:00:03.70

Peak level 99.4 %
Extraction speed 8.8 X
Track quality 100.0 %
Test CRC FECAC15F
Copy CRC FECAC15F
Track not present in AccurateRip database
Copy OK

Track 5

Filename C:\LosslessII\Tangerine Dream - Alpha Centauri (1971) [FLAC] {2011 Esoteric Remaster}\05 - Ultima Thule Part One.wav

Pre-gap length 0:00:01.41

Peak level 99.4 %
Extraction speed 8.3 X
Track quality 100.0 %
Test CRC 52BD7057
Copy CRC 52BD7057
Track not present in AccurateRip database
Copy OK

Track 6

Filename C:\LosslessII\Tangerine Dream - Alpha Centauri (1971) [FLAC] {2011 Esoteric Remaster}\06 - Ultima Thule Part Two.wav

Pre-gap length 0:00:01.64

Peak level 99.4 %
Extraction speed 8.8 X
Track quality 100.0 %
Test CRC 82440491
Copy CRC 82440491
Track not present in AccurateRip database
Copy OK


None of the tracks are present in the AccurateRip database

No errors occurred

End of status report

==== Log checksum 8589A8418418AEEED8B3F33394940E9C6949C4CE83173150EC5C37F7CBFE1A61 ====

[CUETools log; Date: 05.02.2020 0:26:29; Version: 2.1.4]
[CTDB TOCID: _xhKzwLVOk02kI8rH.SguJrzCpc-] found.
Track | CTDB Status
1 | (62/64) Accurately ripped
2 | (64/64) Accurately ripped
3 | (64/64) Accurately ripped
4 | (64/64) Accurately ripped
5 | (64/64) Accurately ripped
6 | (64/64) Accurately ripped
[AccurateRip ID: 000ee659-004f98cb-530d0e06] found.
Track [ CRC | V2 ] Status
01 [70304359|97c5bce1] (02+26/31) Accurately ripped
02 [47d63e60|daf4833f] (02+26/32) Accurately ripped
03 [819cc35f|b2c9f79a] (02+26/32) Accurately ripped
04 [333d9a10|527da608] (02+26/32) Accurately ripped
05 [c234b887|169334a5] (02+26/32) Accurately ripped
06 [c3a7fe3d|7da530f9] (02+26/32) Accurately ripped
Offsetted by 6:
01 [38ec77c1] (00/31) No match (V2 was not tested)
02 [737fd660] (00/32) No match (V2 was not tested)
03 [bfa40e6d] (00/32) No match (V2 was not tested)
04 [e38d1db4] (00/32) No match (V2 was not tested)
05 [236455d5] (00/32) No match (V2 was not tested)
06 [ac13ba0b] (00/32) No match (V2 was not tested)

Track Peak [ CRC32 ] [W/O NULL] [ LOG ]
– 99,4 [F97803D3] [DBC9CAC5]
01 99,4 [C4DEA622] [01FEDF53] CRC32
02 99,4 [AE19BF29] [56762000] CRC32
03 99,2 [2DCD9ED6] [A9C241C8] CRC32
04 99,4 [FECAC15F] [6C588DBB] CRC32
05 99,4 [52BD7057] [5CB3AEE3] CRC32
06 99,4 [82440491] [FC55581F] CRC32

Thanks to the original releaser

See also:
Tangerine Dream - The Electronic Journey (2010) [10CD Box Set]
Tangerine Dream - The Dream Roots Collection [5CD Box Set] (1996)
Tangerine Dream - Electronic Meditation (1970) [Reissue 1996]
Tangerine Dream - Zeit (1972) [Reissue 1996]
Tangerine Dream - Phaedra (1974) [Definitive Edition 1995]
Tangerine Dream - Ricochet (1975) [Definitive Edition 1995]
Tangerine Dream - Stratosfear (1976) [Definitive Edition 1995]
Tangerine Dream - Sorcerer (OST) (1977) [Reissue 2011]
Tangerine Dream - Force Majeure (1979) [Reissue 1995]
Tangerine Dream - Pergamon (1980) [Reissue 1996]
Tangerine Dream - White Eagle (1982) [Reissue 1995]
Tangerine Dream - Logos Live (1982) [Definitive Edition 1995]
Tangerine Dream - Firestarter ...ion Picture Soundtrack] (1984)
Tangerine Dream - Legend (OST) (1986) [Reissue 1995]
Tangerine Dream - Tyger (1987) [Reissue 1996]
Tangerine Dream - Optical Race (1988)
Tangerine Dream - Live Miles (1988) [Reissue 2003]
Tangerine Dream - Lily On The Beach (1989)
Tangerine Dream - Melrose (1990)
Tangerine Dream - Dead Solid Perfect (OST) (1990)
Tangerine Dream - The Park Is Mine (OST) (1991)
Tangerine Dream - Deadly Care (OST) (1992)
Tangerine Dream - Quinoa (1992) [Reissue 2009]
Tangerine Dream - Catch Me If You Can (OST) (1994)
Tangerine Dream - Tyranny Of Beauty (1995)
Tangerine Dream - Goblins' Club (1996)
Tangerine Dream - Zoning (OST) (1996)
Tangerine Dream - The Analogue Space Years 1969-1973 (1998)
Tangerine Dream - The Hollywood Years Vol. 1 (1998)
Tangerine Dream - The Hollywood Years Vol. 2 (1998)
Tangerine Dream - Antique Dreams (2000)
Tangerine Dream - Soundmill Navigator (2000)
Tangerine Dream - The Bootleg Box Set Vol. 1 [7CD] (2003)
Tangerine Dream - Purgatorio (2004)
Tangerine Dream - Arizona Live '92 (2004) [Reissue 2009]
Tangerine Dream - Cleveland - June 24th 1986 (2005)
Tangerine Dream - Blue Dawn (2006)
Tangerine Dream - The Essential Tangerine Dream (2006)
Tangerine Dream - Plays Tangerine Dream (2006)
Tangerine Dream - Views From A Red Train (2008)
Tangerine Dream - Booster (2008)
Tangerine Dream - Booster Vol. 2 (2008)
Tangerine Dream - The Antholog... Space Years Volume One (2008)
Tangerine Dream - Music For Sports: Cool Races (2009)
Tangerine Dream - Music For Sports: Power And Motion (2009)
Tangerine Dream - DM V (Dream Mixes V) (2010)
Tangerine Dream - The London Eye Concert (2010)
Tangerine Dream - The Virgin Years 1974-1978 [3CD Box Set] (2011)
Tangerine Dream - The Official...ies Vol.1 [4CD Box Set] (2015)
Edgar Froese - 2 Albums (1974-1995)
Edgar Froese - Ages (1978) [Reissue 1997]
Edgar Froese - Pinnacles (1983)