Tags
Language
Tags

Tangerine Dream - Antique Dreams (2000)

Posted By:
Tangerine Dream - Antique Dreams (2000)

Tangerine Dream - Antique Dreams (2000)
EAC Rip | APE (image+.cue+log) - 426 MB | MP3 CBR 320 kbps (LAME 3.93) - 166 MB | Covers included
Genre: Progressive Electronic, Ambient | RAR 3% Rec. | Label: TDI Music (TDI CD028)

"Antique Dreams" is a set of some of the best unused material from Tangerine Dream's vaults. The recording dates are from 1971 through 1990, inclusive. That covers most of their stronger eras. The pieces from the early '70s have wild avant-garde and rock & roll timbres. The other tracks match their eras as well. This CD is lots of fun - it is more engaging than their best-of collections and it runs through the band's history. It is essential e-music.
Tracklist:
01. Oedipus Tyrannus Overture
02. Ultima Thule Part 1
03. Calymba Caly
04. Flock Of Bluebirds
05. Speed Dragon
06. Edinburgh Castle
07. Moorland
08. Sorcerer And Thief
09. Southend Mall
10. Cool Breeze Of Brighton
11. Phaedra Of Nottingham
12. House Of The Rising Sun

Total time: 01:09:55

Exact Audio Copy V0.99 prebeta 5 from 4. May 2009

EAC extraction logfile from 20. January 2010, 19:54

Tangerine Dream / Antique Dreams

Used drive : ASUS DRW-2014S1 Adapter: 0 ID: 0

Read mode : Secure
Utilize accurate stream : Yes
Defeat audio cache : Yes
Make use of C2 pointers : No

Read offset correction : 6
Overread into Lead-In and Lead-Out : No
Fill up missing offset samples with silence : Yes
Delete leading and trailing silent blocks : No
Null samples used in CRC calculations : Yes
Used interface : Native Win32 interface for Win NT & 2000

Used output format : Internal WAV Routines
Sample format : 44.100 Hz; 16 Bit; Stereo


TOC of the extracted CD

Track | Start | Length | Start sector | End sector
––––––––––––––––––––––––––––-
1 | 0:00.00 | 5:36.65 | 0 | 25264
2 | 5:36.65 | 3:23.08 | 25265 | 40497
3 | 8:59.73 | 9:50.09 | 40498 | 84756
4 | 18:50.07 | 3:34.58 | 84757 | 100864
5 | 22:24.65 | 3:16.45 | 100865 | 115609
6 | 25:41.35 | 8:46.56 | 115610 | 155115
7 | 34:28.16 | 4:02.63 | 155116 | 173328
8 | 38:31.04 | 6:32.18 | 173329 | 202746
9 | 45:03.22 | 4:29.35 | 202747 | 222956
10 | 49:32.57 | 10:19.22 | 222957 | 269403
11 | 59:52.04 | 5:22.20 | 269404 | 293573
12 | 65:14.24 | 4:41.10 | 293574 | 314658


Range status and errors

Selected range

Filename D:\EAC\Tangerine Dream - Antique Dreams.wav

Peak level 100.0 %
Range quality 100.0 %
Copy CRC A0C501CB
Copy OK

No errors occurred


AccurateRip summary

Track 1 accurately ripped (confidence 5) [A5E3F99C]
Track 2 accurately ripped (confidence 5) [FC1D5C54]
Track 3 accurately ripped (confidence 6) [32A03D7A]
Track 4 accurately ripped (confidence 6) [52446111]
Track 5 accurately ripped (confidence 5) [F8E0329D]
Track 6 accurately ripped (confidence 5) [C7F6EA6C]
Track 7 accurately ripped (confidence 5) [B6AED854]
Track 8 accurately ripped (confidence 5) [434C01D6]
Track 9 accurately ripped (confidence 5) [A807DFD7]
Track 10 accurately ripped (confidence 5) [B03768DA]
Track 11 accurately ripped (confidence 5) [CDCDDF65]
Track 12 accurately ripped (confidence 6) [63E4E07D]

All tracks accurately ripped

End of status report

[CUETools log; Date: 19.10.2017 13:44:25; Version: 2.1.4]
[CTDB TOCID: _L8Oh5JHt4_VAqJYGNpjvpcXiwA-] found.
Track | CTDB Status
1 | (23/23) Accurately ripped
2 | (23/23) Accurately ripped
3 | (22/23) Accurately ripped
4 | (23/23) Accurately ripped
5 | (22/23) Accurately ripped
6 | (23/23) Accurately ripped
7 | (23/23) Accurately ripped
8 | (23/23) Accurately ripped
9 | (23/23) Accurately ripped
10 | (22/23) Accurately ripped
11 | (23/23) Accurately ripped
12 | (23/23) Accurately ripped
[AccurateRip ID: 001e7fbd-011f0f02-9a10630c] found.
Track [ CRC | V2 ] Status
01 [a5e3f99c|988b79e4] (12+07/21) Accurately ripped
02 [fc1d5c54|1660f732] (12+07/21) Accurately ripped
03 [32a03d7a|6abdc19d] (13+07/22) Accurately ripped
04 [52446111|8e6bf4ea] (13+07/22) Accurately ripped
05 [f8e0329d|b2ea8e77] (12+07/21) Accurately ripped
06 [c7f6ea6c|0d7b81b1] (12+08/22) Accurately ripped
07 [b6aed854|87726fec] (12+08/22) Accurately ripped
08 [434c01d6|acb3f84b] (12+07/21) Accurately ripped
09 [a807dfd7|7ea2a5e2] (12+07/19) Accurately ripped
10 [b03768da|a9cb2296] (12+07/21) Accurately ripped
11 [cdcddf65|c88c934c] (12+07/21) Accurately ripped
12 [63e4e07d|9d4f8a43] (13+07/22) Accurately ripped
Offsetted by -1857:
01 [8a48b6cd] (02/21) Accurately ripped
02 [35aa56bf] (02/21) Accurately ripped
03 [8190fb59] (02/22) Accurately ripped
04 [d86829f3] (02/22) Accurately ripped
05 [d3240051] (02/21) Accurately ripped
06 [5ce6308a] (02/22) Accurately ripped
07 [f50b0202] (02/22) Accurately ripped
08 [c794dd7b] (02/21) Accurately ripped
09 [a3c112fd] (00/19) No match (V2 was not tested)
10 [c91bc7bb] (02/21) Accurately ripped
11 [0553719d] (02/21) Accurately ripped
12 [d1f2c207] (02/22) Accurately ripped

Track Peak [ CRC32 ] [W/O NULL] [ LOG ]
– 100,0 [A0C501CB] [A1918B1E] CRC32
01 98,0 [9330E1E3] [429C65EF]
02 98,0 [4CDF190A] [381B8C09]
03 98,0 [6D4B1244] [1766563C]
04 100,0 [9A429104] [577A1740]
05 98,0 [F6C7F6BA] [3F2BEA36]
06 98,0 [11C724D9] [CC633139]
07 98,0 [915A3805] [A9770835]
08 98,0 [81EC7B63] [5F804184]
09 98,0 [B8115644] [2B11173F]
10 98,0 [620803AF] [147DE98B]
11 98,0 [9210E214] [C0F11BB9]
12 98,0 [F9B2DAAC] [DAA106AB]

Thanks to the original releaser