Tags
Language
Tags

Tangerine Dream - Arizona Live '92 (2004) [Reissue 2009] (Repost)

Posted By:
Tangerine Dream - Arizona Live '92 (2004) [Reissue 2009] (Repost)

Tangerine Dream - Arizona Live '92 (2004) [Reissue 2009]
EAC Rip | FLAC (image+.cue+log) - 847 MB | MP3 CBR 320 kbps (LAME 3.93) - 285 MB | Covers - 16 MB
Genre: Electronic, Berlin School, New Age | RAR 3% Rec. | Label: Membran Music (232658)

CD reissue of this title from the innovative German Electronica outfit, one of the most influential instrumental outfits of the 20th century. Tangerine Dream has never produced anything calculated to make the masses jump off their chairs and start screaming Top 40 tunes, but they have managed to have an immense impact in the world of Electronic and soundtrack music. Their 107 (and counting) studio, live and soundtrack releases have their own driving hypnotic pieces that might differ from release to release, but they are all uniquely Tangerine Dream. Personnel: Edgar Froese, Jerome Froese (guitar, keyboards); Zlatko Perica (guitar); Linda Spa (saxophone, keyboards). Recording information: Scottsdale Mall Amphitheater (1992).
CD 1 Tracklist:
01. Waterborne
02. Touchwood
03. Rolling Down Cahuenga
04. The Blue Bridge
05. Oriental Haze
06. Graffiti Street
07. Melrose
08. Two Bunch Palms
09. 220 Volt
10. Homeless

Total time: 01:02:23

CD 2 Tracklist:
01. Story Of The Brave
02. Sundance Kid
03. Girls On Broadway
04. Love On A Real Train
05. Backstreet Hero
06. Body Corporate
07. Rockoon
08. One Night In Medina
09. Hamlet
10. Dreamtime
11. Purple Haze

Total time: 58:45

Exact Audio Copy V0.99 prebeta 5 from 4. May 2009

EAC extraction logfile from 25. April 2013, 19:01

Tangerine Dream / Arizona Live '92

Used drive : ASUS DRW-22B2L Adapter: 0 ID: 0

Read mode : Secure
Utilize accurate stream : Yes
Defeat audio cache : Yes
Make use of C2 pointers : No

Read offset correction : 6
Overread into Lead-In and Lead-Out : No
Fill up missing offset samples with silence : Yes
Delete leading and trailing silent blocks : No
Null samples used in CRC calculations : Yes
Used interface : Native Win32 interface for Win NT & 2000

Used output format : Internal WAV Routines
Sample format : 44.100 Hz; 16 Bit; Stereo


TOC of the extracted CD

Track | Start | Length | Start sector | End sector
––––––––––––––––––––––––––––-
1 | 0:00.00 | 3:27.37 | 0 | 15561
2 | 3:27.37 | 4:53.53 | 15562 | 37589
3 | 8:21.15 | 6:33.60 | 37590 | 67124
4 | 14:55.00 | 3:52.06 | 67125 | 84530
5 | 18:47.06 | 6:10.07 | 84531 | 112287
6 | 24:57.13 | 6:05.62 | 112288 | 139724
7 | 31:03.00 | 6:32.72 | 139725 | 169196
8 | 37:35.72 | 5:52.15 | 169197 | 195611
9 | 43:28.12 | 9:01.70 | 195612 | 236256
10 | 52:30.07 | 9:53.11 | 236257 | 280742


Range status and errors

Selected range

Filename D:\EAC\Tangerine Dream - Arizona Live '92 (CD 1).wav

Peak level 100.0 %
Range quality 100.0 %
Test CRC 091935B9
Copy CRC 091935B9
Copy OK

No errors occurred


AccurateRip summary

Track 1 accurately ripped (confidence 1) [365C7EC6]
Track 2 accurately ripped (confidence 1) [38FDB487]
Track 3 accurately ripped (confidence 1) [E25FD5D1]
Track 4 accurately ripped (confidence 1) [B9C55369]
Track 5 accurately ripped (confidence 1) [7A142FE0]
Track 6 accurately ripped (confidence 1) [E2B92C42]
Track 7 accurately ripped (confidence 1) [094A21AB]
Track 8 accurately ripped (confidence 1) [31A33FE2]
Track 9 accurately ripped (confidence 1) [3824C428]
Track 10 accurately ripped (confidence 1) [197F2CFE]

All tracks accurately ripped

End of status report

[CUETools log; Date: 21.05.2016 1:40:43; Version: 2.1.4]
[CTDB TOCID: eQ9Np3Sd4RZh9PxpxKjG4ksAV9g-] found.
Track | CTDB Status
1 | (7/7) Accurately ripped
2 | (7/7) Accurately ripped
3 | (7/7) Accurately ripped
4 | (7/7) Accurately ripped
5 | (7/7) Accurately ripped
6 | (7/7) Accurately ripped
7 | (7/7) Accurately ripped
8 | (7/7) Accurately ripped
9 | (7/7) Accurately ripped
10 | (6/7) Accurately ripped
[AccurateRip ID: 00146d06-00a8a2a0-890e9f0a] found.
Track [ CRC | V2 ] Status
01 [365c7ec6|25967637] (2+6/8) Accurately ripped
02 [38fdb487|6f1e00ce] (2+6/8) Accurately ripped
03 [e25fd5d1|ed22409f] (2+6/8) Accurately ripped
04 [b9c55369|1e1a9073] (2+6/8) Accurately ripped
05 [7a142fe0|6972a47b] (2+6/8) Accurately ripped
06 [e2b92c42|b4225d8a] (2+6/8) Accurately ripped
07 [094a21ab|71cd878c] (2+6/8) Accurately ripped
08 [31a33fe2|462695ba] (2+6/8) Accurately ripped
09 [3824c428|572d5888] (2+6/8) Accurately ripped
10 [197f2cfe|28cffeac] (2+6/8) Accurately ripped

Track Peak [ CRC32 ] [W/O NULL] [ LOG ]
– 100,0 [091935B9] [6E39AF56] CRC32
01 88,6 [312972EB] [D44B095E]
02 97,4 [553A1C60] [F12F9CF1]
03 98,4 [F8FCB0B4] [607B0FCA]
04 99,9 [5837E943] [2DE0F202]
05 99,9 [EBB32FC7] [FFE6F192]
06 99,9 [5CBFF965] [2965C695]
07 99,9 [E11E24C0] [3EDDFECF]
08 100,0 [21C9BBDD] [F940FDA3]
09 99,8 [A37BCE38] [F3FC9D7C]
10 99,8 [DD590D50] [C6BC2C9B]

Exact Audio Copy V0.99 prebeta 5 from 4. May 2009

EAC extraction logfile from 25. April 2013, 20:16

Tangerine Dream / Arizona Live '92

Used drive : ASUS DRW-22B2L Adapter: 0 ID: 0

Read mode : Secure
Utilize accurate stream : Yes
Defeat audio cache : Yes
Make use of C2 pointers : No

Read offset correction : 6
Overread into Lead-In and Lead-Out : No
Fill up missing offset samples with silence : Yes
Delete leading and trailing silent blocks : No
Null samples used in CRC calculations : Yes
Used interface : Native Win32 interface for Win NT & 2000

Used output format : Internal WAV Routines
Sample format : 44.100 Hz; 16 Bit; Stereo


TOC of the extracted CD

Track | Start | Length | Start sector | End sector
––––––––––––––––––––––––––––-
1 | 0:00.00 | 4:50.44 | 0 | 21793
2 | 4:50.44 | 4:58.18 | 21794 | 44161
3 | 9:48.62 | 4:51.28 | 44162 | 66014
4 | 14:40.15 | 3:58.68 | 66015 | 83932
5 | 18:39.08 | 8:45.12 | 83933 | 123319
6 | 27:24.20 | 3:55.71 | 123320 | 141015
7 | 31:20.16 | 7:30.70 | 141016 | 174835
8 | 38:51.11 | 4:21.26 | 174836 | 194436
9 | 43:12.37 | 8:36.06 | 194437 | 233142
10 | 51:48.43 | 3:31.26 | 233143 | 248993
11 | 55:19.69 | 3:24.58 | 248994 | 264351


Range status and errors

Selected range

Filename D:\EAC\Tangerine Dream - Arizona Live '92 (CD 2).wav

Peak level 100.0 %
Range quality 100.0 %
Test CRC D2FA0F05
Copy CRC D2FA0F05
Copy OK

No errors occurred


AccurateRip summary

Track 1 accurately ripped (confidence 1) [5003348F]
Track 2 accurately ripped (confidence 1) [EA8CAF95]
Track 3 accurately ripped (confidence 1) [2D3BE63A]
Track 4 accurately ripped (confidence 1) [7E50F7C2]
Track 5 accurately ripped (confidence 1) [C47441FA]
Track 6 accurately ripped (confidence 1) [0DCC20D7]
Track 7 accurately ripped (confidence 1) [06195B4D]
Track 8 accurately ripped (confidence 1) [373A521C]
Track 9 accurately ripped (confidence 1) [E2963C26]
Track 10 accurately ripped (confidence 1) [03459466]
Track 11 accurately ripped (confidence 1) [DFAC0B32]

All tracks accurately ripped

End of status report

[CUETools log; Date: 21.05.2016 1:41:45; Version: 2.1.4]
[CTDB TOCID: NghAdzIw_2u4zRayVOP5BG53QgI-] found.
Track | CTDB Status
1 | (8/8) Accurately ripped
2 | (8/8) Accurately ripped
3 | (8/8) Accurately ripped
4 | (8/8) Accurately ripped
5 | (8/8) Accurately ripped
6 | (8/8) Accurately ripped
7 | (8/8) Accurately ripped
8 | (8/8) Accurately ripped
9 | (8/8) Accurately ripped
10 | (8/8) Accurately ripped
11 | (8/8) Accurately ripped
[AccurateRip ID: 00185a62-00d549b9-850dc40b] found.
Track [ CRC | V2 ] Status
01 [5003348f|4834a695] (2+6/8) Accurately ripped
02 [ea8caf95|95b7a0c8] (2+6/8) Accurately ripped
03 [2d3be63a|445f71f5] (2+6/8) Accurately ripped
04 [7e50f7c2|ef8b327d] (2+6/8) Accurately ripped
05 [c47441fa|216dc4ca] (2+6/8) Accurately ripped
06 [0dcc20d7|d2be0b58] (2+6/8) Accurately ripped
07 [06195b4d|b5bb2848] (2+6/8) Accurately ripped
08 [373a521c|a976b17c] (2+6/8) Accurately ripped
09 [e2963c26|a2f74007] (2+6/8) Accurately ripped
10 [03459466|86c7149f] (2+6/8) Accurately ripped
11 [dfac0b32|7cd9342e] (2+6/8) Accurately ripped

Track Peak [ CRC32 ] [W/O NULL] [ LOG ]
– 100,0 [D2FA0F05] [C717A7D9] CRC32
01 87,8 [8C1B4D0E] [DF0D7F7F]
02 88,8 [A63D85D9] [DE207572]
03 90,4 [08AFB462] [3B483D98]
04 79,1 [2B48347C] [7D32E0D3]
05 96,2 [10B50DB6] [D63AE118]
06 82,7 [6F77DB1E] [D49A3BD0]
07 95,5 [17555A07] [6760A287]
08 94,8 [C9F62BEF] [C318DF1E]
09 88,9 [4A4A75FD] [A78CEABF]
10 86,8 [B4CB517D] [B5D0DFE6]
11 100,0 [A270528B] [460E151D]

Thanks to x777x