Tags
Language
Tags

Tangerine Dream - Blue Dawn (2006) (Repost)

Posted By: gribovar
Tangerine Dream - Blue Dawn (2006) (Repost)

Tangerine Dream - Blue Dawn (2006)
EAC Rip | FLAC (tracks+.cue+log) - 426 MB | MP3 CBR 320 kbps (LAME 3.93) - 145 MB | Covers - 22 MB
Genre: Progressive Electronic, New Age | RAR 3% Rec. | Label: Eastgate Music

The material of this album was composed during Tangerine Dream's North American tour back in August/September 1988. Weeks after weeks in tourbusses, planes, hotels and various locations gave the two guys here the opportunity to get musically into something different off stage. The plan was to release the stuff as an on and off the road album later in the year. The road feeling as well as the summertime in the states had been a strong influence for these compositions. The album was completed while hanging out after the tour at a friend's place in LA. Because of various reasons the album had a delay for over about seventeen years before it now will be presented to the public. Actually, this record is composed and performed by Edgar Froese and Ralf Wadephul (who also toured the US with the band) - Paul Haslinger was not involved in this production. The 'Blue Dawn' is a collaboration between an old chap of Edgar, Ralf Wadephul (he accompained TD on their US tour in 1988) and Edgar Froese himself.
It will contain unreleased stuff from the two guys which came out of nightliner sessions, hotel suite compositions and later collaborations.

Tracklist:
01. Where Dreams are Large and Airy
02. Riding the Wind
03. Thunderheads
04. Eagle's Crest
05. Food for the Gods
06. Without a Bad Conscience
07. Cardamom Route
08. A World Away from Gagaland
09. Native Companions
10. Blue Dawn

Total time: 01:01:53

Exact Audio Copy V0.99 prebeta 4 from 23. January 2008

EAC extraction logfile from 14. April 2009, 0:13

Tangerine Dream / Blue Dawn

Used drive : SONY DVD RW DRU-840A Adapter: 1 ID: 0

Read mode : Secure
Utilize accurate stream : Yes
Defeat audio cache : Yes
Make use of C2 pointers : No

Read offset correction : 6
Overread into Lead-In and Lead-Out : No
Fill up missing offset samples with silence : Yes
Delete leading and trailing silent blocks : No
Null samples used in CRC calculations : Yes
Used interface : Native Win32 interface for Win NT & 2000
Gap handling : Appended to previous track

Used output format : User Defined Encoder
Selected bitrate : 320 kBit/s
Quality : High
Add ID3 tag : No
Command line compressor : C:\Program Files\FLAC\flac.exe
Additional command line options : -8 -V -T "ARTIST=%a" -T "TITLE=%t" -T "ALBUM=%g" -T "DATE=%y" -T "TRACKNUMBER=%n" -T "GENRE=%m" -T "COMMENT=EAC FLAC -8" %s


TOC of the extracted CD

Track | Start | Length | Start sector | End sector
––––––––––––––––––––––––––––-
1 | 0:00.00 | 6:21.32 | 0 | 28606
2 | 6:21.32 | 4:37.24 | 28607 | 49405
3 | 10:58.56 | 7:27.63 | 49406 | 82993
4 | 18:26.44 | 5:37.10 | 82994 | 108278
5 | 24:03.54 | 8:24.17 | 108279 | 146095
6 | 32:27.71 | 6:02.37 | 146096 | 173282
7 | 38:30.33 | 5:02.47 | 173283 | 195979
8 | 43:33.05 | 7:06.09 | 195980 | 227938
9 | 50:39.14 | 4:14.09 | 227939 | 246997
10 | 54:53.23 | 7:01.07 | 246998 | 278579


Track 1

Filename C:\FlowerJewel\EAC Ripped\Tangerine Dream - Blue Dawn (2006) [FLAC]\01 - Where Dreams Are Large And Airy.wav

Pre-gap length 0:00:02.00

Peak level 88.9 %
Track quality 100.0 %
Test CRC 7BF6A955
Copy CRC 7BF6A955
Accurately ripped (confidence 2) [914BE5A6]
Copy OK

Track 2

Filename C:\FlowerJewel\EAC Ripped\Tangerine Dream - Blue Dawn (2006) [FLAC]\02 - Riding The Wind.wav

Pre-gap length 0:00:02.00

Peak level 100.0 %
Track quality 100.0 %
Test CRC 077C346B
Copy CRC 077C346B
Accurately ripped (confidence 2) [42FE80BB]
Copy OK

Track 3

Filename C:\FlowerJewel\EAC Ripped\Tangerine Dream - Blue Dawn (2006) [FLAC]\03 - Thunderheads.wav

Pre-gap length 0:00:02.00

Peak level 92.1 %
Track quality 100.0 %
Test CRC FB42BDD7
Copy CRC FB42BDD7
Accurately ripped (confidence 2) [58213359]
Copy OK

Track 4

Filename C:\FlowerJewel\EAC Ripped\Tangerine Dream - Blue Dawn (2006) [FLAC]\04 - Eagle's Crest.wav

Pre-gap length 0:00:02.00

Peak level 100.0 %
Track quality 100.0 %
Test CRC 5FF51A43
Copy CRC 5FF51A43
Accurately ripped (confidence 2) [6D8BD3D6]
Copy OK

Track 5

Filename C:\FlowerJewel\EAC Ripped\Tangerine Dream - Blue Dawn (2006) [FLAC]\05 - Food For The Gods.wav

Pre-gap length 0:00:02.00

Peak level 96.8 %
Track quality 100.0 %
Test CRC EC4EE4AC
Copy CRC EC4EE4AC
Accurately ripped (confidence 2) [CCCF6BA4]
Copy OK

Track 6

Filename C:\FlowerJewel\EAC Ripped\Tangerine Dream - Blue Dawn (2006) [FLAC]\06 - Without A Bad Conscience.wav

Pre-gap length 0:00:02.00

Peak level 89.6 %
Track quality 100.0 %
Test CRC 3F0001F3
Copy CRC 3F0001F3
Accurately ripped (confidence 2) [978F117D]
Copy OK

Track 7

Filename C:\FlowerJewel\EAC Ripped\Tangerine Dream - Blue Dawn (2006) [FLAC]\07 - Cardamom Route.wav

Pre-gap length 0:00:02.00

Peak level 99.9 %
Track quality 100.0 %
Test CRC AAFDAF17
Copy CRC AAFDAF17
Accurately ripped (confidence 2) [87203D61]
Copy OK

Track 8

Filename C:\FlowerJewel\EAC Ripped\Tangerine Dream - Blue Dawn (2006) [FLAC]\08 - A World Away From Gagaland.wav

Pre-gap length 0:00:02.00

Peak level 99.9 %
Track quality 100.0 %
Test CRC B34E8D42
Copy CRC B34E8D42
Accurately ripped (confidence 2) [07D39E65]
Copy OK

Track 9

Filename C:\FlowerJewel\EAC Ripped\Tangerine Dream - Blue Dawn (2006) [FLAC]\09 - Native Companions.wav

Pre-gap length 0:00:02.00

Peak level 99.9 %
Track quality 100.0 %
Test CRC FA8854A8
Copy CRC FA8854A8
Accurately ripped (confidence 2) [B3B7E08F]
Copy OK

Track 10

Filename C:\FlowerJewel\EAC Ripped\Tangerine Dream - Blue Dawn (2006) [FLAC]\10 - Blue Dawn.wav

Pre-gap length 0:00:02.00

Peak level 99.9 %
Track quality 100.0 %
Test CRC 192AD569
Copy CRC 192AD569
Accurately ripped (confidence 2) [0AA4D187]
Copy OK


All tracks accurately ripped

No errors occurred

End of status report

[CUETools log; Date: 19.11.2016 0:22:24; Version: 2.1.4]
[CTDB TOCID: x9zGEEAd1Mlmz7kavkmIzclA5kA-] found.
Track | CTDB Status
1 | (7/7) Accurately ripped
2 | (7/7) Accurately ripped
3 | (7/7) Accurately ripped
4 | (7/7) Accurately ripped
5 | (7/7) Accurately ripped
6 | (7/7) Accurately ripped
7 | (7/7) Accurately ripped
8 | (7/7) Accurately ripped
9 | (7/7) Accurately ripped
10 | (7/7) Accurately ripped
[AccurateRip ID: 00177872-00bc04dc-7c0e820a] found.
Track [ CRC | V2 ] Status
01 [914be5a6|53287792] (10+03/13) Accurately ripped
02 [42fe80bb|db08997c] (10+03/13) Accurately ripped
03 [58213359|cd4a4d49] (10+03/13) Accurately ripped
04 [6d8bd3d6|c85e4f97] (10+03/13) Accurately ripped
05 [cccf6ba4|535dcddb] (10+03/13) Accurately ripped
06 [978f117d|168db1a0] (10+03/13) Accurately ripped
07 [87203d61|04d65a9e] (10+03/13) Accurately ripped
08 [07d39e65|4b1de034] (10+03/13) Accurately ripped
09 [b3b7e08f|d3dd355d] (10+03/13) Accurately ripped
10 [0aa4d187|d678de78] (10+03/13) Accurately ripped

Track Peak [ CRC32 ] [W/O NULL] [ LOG ]
– 100,0 [81FD3D24] [E4B26A40]
01 88,9 [7BF6A955] [DC79260C] CRC32
02 100,0 [077C346B] [C2E15BCF] CRC32
03 92,1 [FB42BDD7] [B3764236] CRC32
04 100,0 [5FF51A43] [934BB330] CRC32
05 96,8 [EC4EE4AC] [F6F29D3C] CRC32
06 89,6 [3F0001F3] [BCE57EC7] CRC32
07 99,9 [AAFDAF17] [4A931C5B] CRC32
08 99,9 [B34E8D42] [6C3C1DAF] CRC32
09 99,9 [FA8854A8] [15607C90] CRC32
10 99,9 [192AD569] [446F4744] CRC32

Thanks to the original releaser