Tags
Language
Tags

Tangerine Dream - Booster (2008)

Posted By: gribovar
Tangerine Dream - Booster (2008)

Tangerine Dream - Booster (2008)
EAC Rip | APE (image+.cue+log) - 684 MB | MP3 CBR 320 kbps (LAME 3.93) - 265 MB | Covers - 21 MB
Genre: Traditional Electronic, Berlin School | RAR 3% Rec. | Label: Cleopatra Records (CLP 2412)

"Booster" comes as a double CD and contains some real goodies from the alchymical soundboard of TD. There are two brand-new compositions and some tracks which aren't available on various EP's anymore. Of course you will hear music you've probably heard before. But for some of you it will become a collector's item as a pack of tracks which definitely will become 'classics' out of the first decade of the new musical Century.

CD 1 Tracklist:
01. One Night In Space
02. Hyper Sphinx
03. Metaphor Part One
04. Metaphor Part Two
05. The Greek Mirror
06. Lady Monk
07. I Could Hear It When The Moon Collapsed On Broadway
08. Logos

Total time: 54:33

CD 2 Tracklist:
01. Tangram Chin Part
02. Sleeping Watches Snoring In Silence
03. Tangines On And Running
04. All Thirsty Angels Pass
05. World Away From Gagaland
06. Big Sur And The Oranges From Hieronymus Bosch
07. Ça Va - Ça Marche - Ça Ira Encore
08. Bells Of Accra

Total time: 58:00

Exact Audio Copy V0.99 prebeta 5 from 4. May 2009

EAC extraction logfile from 31. January 2010, 23:35

Tangerine Dream / Booster

Used drive : ASUS DRW-1814BL Adapter: 0 ID: 0

Read mode : Secure
Utilize accurate stream : Yes
Defeat audio cache : Yes
Make use of C2 pointers : No

Read offset correction : 6
Overread into Lead-In and Lead-Out : No
Fill up missing offset samples with silence : Yes
Delete leading and trailing silent blocks : No
Null samples used in CRC calculations : Yes
Used interface : Native Win32 interface for Win NT & 2000

Used output format : Internal WAV Routines
Sample format : 44.100 Hz; 16 Bit; Stereo


TOC of the extracted CD

Track | Start | Length | Start sector | End sector
––––––––––––––––––––––––––––-
1 | 0:00.00 | 6:56.65 | 0 | 31264
2 | 6:56.65 | 14:20.36 | 31265 | 95800
3 | 21:17.26 | 5:02.71 | 95801 | 118521
4 | 26:20.22 | 5:03.28 | 118522 | 141274
5 | 31:23.50 | 7:39.31 | 141275 | 175730
6 | 39:03.06 | 4:50.61 | 175731 | 197541
7 | 43:53.67 | 5:21.27 | 197542 | 221643
8 | 49:15.19 | 5:17.71 | 221644 | 245489


Range status and errors

Selected range

Filename D:\EAC\Tangerine Dream - Booster (CD 1).wav

Peak level 98.8 %
Range quality 100.0 %
Test CRC 13D89290
Copy CRC 13D89290
Copy OK

No errors occurred


AccurateRip summary

Track 1 accurately ripped (confidence 2) [6A65CBB8]
Track 2 accurately ripped (confidence 2) [8199BCE2]
Track 3 accurately ripped (confidence 2) [CD0AB9D6]
Track 4 accurately ripped (confidence 2) [953B46C4]
Track 5 accurately ripped (confidence 2) [7D7B9EC8]
Track 6 accurately ripped (confidence 2) [DB4EFA38]
Track 7 accurately ripped (confidence 2) [4DB45951]
Track 8 accurately ripped (confidence 2) [154DF492]

All tracks accurately ripped

End of status report

[CUETools log; Date: 06.11.2017 13:43:27; Version: 2.1.4]
[CTDB TOCID: _t2fSk5tx8Pv500QBKruynABYGg-] found.
Track | CTDB Status
1 | (23/38) Accurately ripped
2 | (23/38) Accurately ripped
3 | (23/38) Accurately ripped
4 | (23/38) Accurately ripped
5 | (23/38) Accurately ripped
6 | (23/38) Accurately ripped
7 | (23/38) Accurately ripped
8 | (23/38) Accurately ripped
[AccurateRip ID: 0012ba06-00794f3b-7d0cc908] found.
Track [ CRC | V2 ] Status
01 [6a65cbb8|1d5b753f] (07+06/26) Accurately ripped
02 [8199bce2|d47892b6] (07+06/26) Accurately ripped
03 [cd0ab9d6|00990f4d] (07+06/26) Accurately ripped
04 [953b46c4|9a90f789] (07+06/26) Accurately ripped
05 [7d7b9ec8|f7a16eb6] (07+06/26) Accurately ripped
06 [db4efa38|113826b2] (07+06/26) Accurately ripped
07 [4db45951|47d76706] (07+05/24) Accurately ripped
08 [154df492|e5a14310] (07+06/26) Accurately ripped
Offsetted by 18:
01 [141af7c0] (03/26) Accurately ripped
02 [d1bbd686] (03/26) Accurately ripped
03 [11cc5dff] (03/26) Accurately ripped
04 [45fbdd11] (03/26) Accurately ripped
05 [06ef02e2] (03/26) Accurately ripped
06 [841ea958] (03/26) Accurately ripped
07 [7f0a347d] (02/24) Accurately ripped
08 [cca933b4] (03/26) Accurately ripped

Track Peak [ CRC32 ] [W/O NULL] [ LOG ]
– 98,8 [13D89290] [80EB322C] CRC32
01 98,8 [D61A2603] [E5B25C25]
02 98,8 [E37AE27E] [812B878F]
03 98,8 [7066BC89] [C45FEF02]
04 98,8 [C4D6B5E3] [E7D54C73]
05 98,8 [764801E5] [7307D101]
06 98,8 [42D8E235] [6E32CF6F]
07 98,8 [FD5D945D] [A28B124D]
08 98,8 [8D39B492] [1B890B89]

Exact Audio Copy V0.99 prebeta 5 from 4. May 2009

EAC extraction logfile from 1. February 2010, 0:09

Tangerine Dream / Booster

Used drive : ASUS DRW-1814BL Adapter: 0 ID: 0

Read mode : Secure
Utilize accurate stream : Yes
Defeat audio cache : Yes
Make use of C2 pointers : No

Read offset correction : 6
Overread into Lead-In and Lead-Out : No
Fill up missing offset samples with silence : Yes
Delete leading and trailing silent blocks : No
Null samples used in CRC calculations : Yes
Used interface : Native Win32 interface for Win NT & 2000

Used output format : Internal WAV Routines
Sample format : 44.100 Hz; 16 Bit; Stereo


TOC of the extracted CD

Track | Start | Length | Start sector | End sector
––––––––––––––––––––––––––––-
1 | 0:00.00 | 7:24.48 | 0 | 33347
2 | 7:24.48 | 6:00.23 | 33348 | 60370
3 | 13:24.71 | 4:45.44 | 60371 | 81789
4 | 18:10.40 | 7:22.73 | 81790 | 115012
5 | 25:33.38 | 7:00.25 | 115013 | 146537
6 | 32:33.63 | 6:02.71 | 146538 | 173758
7 | 38:36.59 | 4:55.66 | 173759 | 195949
8 | 43:32.50 | 14:27.17 | 195950 | 260991


Range status and errors

Selected range

Filename D:\EAC\Tangerine Dream - Booster (CD 2).wav

Peak level 100.0 %
Range quality 100.0 %
Test CRC A0998724
Copy CRC A0998724
Copy OK

No errors occurred


AccurateRip summary

Track 1 accurately ripped (confidence 2) [48631AB4]
Track 2 accurately ripped (confidence 2) [1E305555]
Track 3 accurately ripped (confidence 2) [B1DF879F]
Track 4 accurately ripped (confidence 2) [F8633269]
Track 5 accurately ripped (confidence 2) [E7E6BF36]
Track 6 accurately ripped (confidence 2) [439A1EE1]
Track 7 accurately ripped (confidence 2) [AD54852B]
Track 8 accurately ripped (confidence 2) [1B6DE6A9]

All tracks accurately ripped

End of status report

[CUETools log; Date: 06.11.2017 13:44:44; Version: 2.1.4]
[CTDB TOCID: NGuUfm5q.a0z5DpPGPR0uUzDp0g-] found.
Track | CTDB Status
1 | (22/35) Accurately ripped
2 | (22/35) Accurately ripped
3 | (22/35) Accurately ripped
4 | (22/35) Accurately ripped
5 | (22/35) Accurately ripped
6 | (22/35) Accurately ripped
7 | (22/35) Accurately ripped
8 | (22/35) Accurately ripped
[AccurateRip ID: 00104af1-006d48f8-670d9708] found.
Track [ CRC | V2 ] Status
01 [48631ab4|dcaacb77] (06+06/25) Accurately ripped
02 [1e305555|1538fcea] (06+06/25) Accurately ripped
03 [b1df879f|be9e4cfa] (06+05/24) Accurately ripped
04 [f8633269|7c8a2eaa] (06+05/24) Accurately ripped
05 [e7e6bf36|19a6c521] (06+05/24) Accurately ripped
06 [439a1ee1|aed17d0c] (06+05/24) Accurately ripped
07 [ad54852b|8120c01c] (06+06/25) Accurately ripped
08 [1b6de6a9|944ebc80] (06+06/25) Accurately ripped
Offsetted by 18:
01 [6e48e71a] (03/25) Accurately ripped
02 [121dfd6d] (03/25) Accurately ripped
03 [419fb6c1] (03/24) Accurately ripped
04 [3fd36929] (03/24) Accurately ripped
05 [226f7422] (03/24) Accurately ripped
06 [c799a1eb] (03/24) Accurately ripped
07 [5d56e0c9] (03/25) Accurately ripped
08 [d5c561c3] (03/25) Accurately ripped

Track Peak [ CRC32 ] [W/O NULL] [ LOG ]
– 100,0 [A0998724] [BF1BAE91] CRC32
01 98,8 [D09B8DF6] [05252CA5]
02 98,8 [76B3491A] [82843EAB]
03 100,0 [2C28DF58] [1C303105]
04 98,8 [6BE8F01B] [0DDD9072]
05 98,8 [A1FC4484] [FE9B0BA5]
06 98,8 [D510AC23] [0F04972F]
07 98,8 [2CA86656] [39A2F1A9]
08 98,4 [11ACB232] [DCD474DB]

Thanks to the original releaser