Tags
Language
Tags

Tangerine Dream - Booster Vol. 2 (2008) (Repost)

Posted By: gribovar
Tangerine Dream - Booster Vol. 2 (2008) (Repost)

Tangerine Dream - Booster Vol. 2 (2008)
EAC Rip | APE (image+.cue+log) - 875 MB | MP3 CBR 320 kbps (LAME 3.93) - 328 MB | Covers included
Genre: Traditional Electronic, Berlin School | RAR 3% Rec. | Label: Eastgate (033 CD)

This 2CD set features newly recorded versions of fan favorites such as "Cloudburst Flight" (from the 1979 album Force Majeure) and "Scrapyard" (from the 1981 soundtrack to the Michael Mann film "Thief") along with other rare tracks plus a stellar version of The Beatles’ "Tomorrow Never Knows" and much more.

CD 1 Tracklist:
01. Cloudburst Flight 2008
02. Scrapyard 2008
03. A Streetcar Named Desire
04. The Last Wave
05. Modesty And Greed
06. Hunter Shot By A Yellow Rabbit
07. Boat To China
08. No Man's Land 2008
09. Desert Dream (Palm Desert Version)
10. Exit To Heaven

Total time: 01:08:25

CD 2 Tracklist:
01. Sadness Of Echnaton Losing The World Child
02. Huckebee's Dream
03. Angel In Barbed Wire Robe
04. La Boca Race
05. Tomorrow Never Knows
06. Oracular World
07. Fire On The Mountain
08. Sunshift
09. Beyond The Cottage And The Lake
10. Trauma

Total time: 01:10:28

Exact Audio Copy V0.99 prebeta 5 from 4. May 2009

EAC extraction logfile from 4. February 2010, 0:29

Tangerine Dream / Booster Vol. 2

Used drive : ASUS DRW-1814BL Adapter: 0 ID: 0

Read mode : Secure
Utilize accurate stream : Yes
Defeat audio cache : Yes
Make use of C2 pointers : No

Read offset correction : 6
Overread into Lead-In and Lead-Out : No
Fill up missing offset samples with silence : Yes
Delete leading and trailing silent blocks : No
Null samples used in CRC calculations : Yes
Used interface : Native Win32 interface for Win NT & 2000

Used output format : Internal WAV Routines
Sample format : 44.100 Hz; 16 Bit; Stereo


TOC of the extracted CD

Track | Start | Length | Start sector | End sector
––––––––––––––––––––––––––––-
1 | 0:00.00 | 8:09.08 | 0 | 36682
2 | 8:09.08 | 4:09.61 | 36683 | 55418
3 | 12:18.69 | 8:14.23 | 55419 | 92491
4 | 20:33.17 | 5:23.34 | 92492 | 116750
5 | 25:56.51 | 7:03.31 | 116751 | 148506
6 | 33:00.07 | 9:31.01 | 148507 | 191332
7 | 42:31.08 | 7:27.09 | 191333 | 224866
8 | 49:58.17 | 9:40.74 | 224867 | 268440
9 | 59:39.16 | 4:01.74 | 268441 | 286589
10 | 63:41.15 | 4:43.54 | 286590 | 307868


Range status and errors

Selected range

Filename D:\EAC\Tangerine Dream - Booster Vol. 2 (CD 1).wav

Peak level 99.0 %
Range quality 100.0 %
Test CRC 757BCF22
Copy CRC 757BCF22
Copy OK

No errors occurred


AccurateRip summary

Track 1 accurately ripped (confidence 3) [9A266519]
Track 2 accurately ripped (confidence 3) [419C2585]
Track 3 accurately ripped (confidence 3) [90C727DD]
Track 4 accurately ripped (confidence 3) [38844037]
Track 5 accurately ripped (confidence 3) [0C53324E]
Track 6 accurately ripped (confidence 3) [982F5A10]
Track 7 accurately ripped (confidence 3) [07092278]
Track 8 accurately ripped (confidence 3) [D41912F6]
Track 9 accurately ripped (confidence 3) [7C051146]
Track 10 accurately ripped (confidence 3) [C3E6DCC5]

All tracks accurately ripped

End of status report

[CUETools log; Date: 05.11.2017 12:39:50; Version: 2.1.4]
[CTDB TOCID: FvcKi.2hgLTT4vIP3r2axEI90JU-] found.
Track | CTDB Status
1 | (14/14) Accurately ripped
2 | (14/14) Accurately ripped
3 | (14/14) Accurately ripped
4 | (14/14) Accurately ripped
5 | (14/14) Accurately ripped
6 | (14/14) Accurately ripped
7 | (14/14) Accurately ripped
8 | (14/14) Accurately ripped
9 | (14/14) Accurately ripped
10 | (14/14) Accurately ripped
[AccurateRip ID: 001a61b8-00d3f60c-8010080a] found.
Track [ CRC | V2 ] Status
01 [9a266519|168d2a0d] (05+00/11) Accurately ripped
02 [419c2585|e3d64e88] (05+00/11) Accurately ripped
03 [90c727dd|29a04142] (05+00/11) Accurately ripped
04 [38844037|312fefa7] (05+00/11) Accurately ripped
05 [0c53324e|01cedb77] (05+00/11) Accurately ripped
06 [982f5a10|a13e84b4] (05+00/11) Accurately ripped
07 [07092278|f429ba19] (05+00/11) Accurately ripped
08 [d41912f6|90a83eae] (05+00/11) Accurately ripped
09 [7c051146|87c8f906] (05+00/11) Accurately ripped
10 [c3e6dcc5|0f2594b4] (05+00/11) Accurately ripped
Offsetted by -18:
01 [d14be621] (04/11) Accurately ripped
02 [ff412d2f] (04/11) Accurately ripped
03 [969c49c1] (04/11) Accurately ripped
04 [08d96ad3] (04/11) Accurately ripped
05 [700b678e] (04/11) Accurately ripped
06 [9fee01f0] (04/11) Accurately ripped
07 [81dfe128] (04/11) Accurately ripped
08 [73a8d472] (04/11) Accurately ripped
09 [7f4e62b6] (04/11) Accurately ripped
10 [bbb29891] (04/11) Accurately ripped

Track Peak [ CRC32 ] [W/O NULL] [ LOG ]
– 99,0 [757BCF22] [5920ED32] CRC32
01 98,8 [113F9919] [8725E2F2]
02 98,8 [E46D06BA] [6E5B3A37]
03 98,8 [8CA5765F] [940940DC]
04 90,3 [C39C7143] [BEB73AE8]
05 97,7 [D7B522F0] [EBD0441E]
06 99,0 [BE3DA0A8] [9EFF9DB7]
07 98,7 [11013D5E] [6E9AA607]
08 98,8 [035A427C] [F2A83BA2]
09 91,4 [2F6E0A3E] [811200BD]
10 98,8 [034095DD] [63EA3E13]

Exact Audio Copy V0.99 prebeta 5 from 4. May 2009

EAC extraction logfile from 4. February 2010, 0:59

Tangerine Dream / Booster Vol. 2

Used drive : ASUS DRW-1814BL Adapter: 0 ID: 0

Read mode : Secure
Utilize accurate stream : Yes
Defeat audio cache : Yes
Make use of C2 pointers : No

Read offset correction : 6
Overread into Lead-In and Lead-Out : No
Fill up missing offset samples with silence : Yes
Delete leading and trailing silent blocks : No
Null samples used in CRC calculations : Yes
Used interface : Native Win32 interface for Win NT & 2000

Used output format : Internal WAV Routines
Sample format : 44.100 Hz; 16 Bit; Stereo


TOC of the extracted CD

Track | Start | Length | Start sector | End sector
––––––––––––––––––––––––––––-
1 | 0:00.00 | 6:23.37 | 0 | 28761
2 | 6:23.37 | 10:46.07 | 28762 | 77218
3 | 17:09.44 | 4:33.24 | 77219 | 97717
4 | 21:42.68 | 9:53.45 | 97718 | 142237
5 | 31:36.38 | 5:09.36 | 142238 | 165448
6 | 36:45.74 | 4:42.62 | 165449 | 186660
7 | 41:28.61 | 7:39.46 | 186661 | 221131
8 | 49:08.32 | 7:15.06 | 221132 | 253762
9 | 56:23.38 | 4:39.29 | 253763 | 274716
10 | 61:02.67 | 9:25.10 | 274717 | 317101


Range status and errors

Selected range

Filename D:\EAC\Tangerine Dream - Booster Vol. 2 (CD 2).wav

Peak level 99.5 %
Range quality 100.0 %
Test CRC 1D4731B9
Copy CRC 1D4731B9
Copy OK

No errors occurred


AccurateRip summary

Track 1 accurately ripped (confidence 3) [9614C69D]
Track 2 accurately ripped (confidence 3) [DA34C954]
Track 3 accurately ripped (confidence 3) [BAC1BC9F]
Track 4 accurately ripped (confidence 3) [2E0EFE7C]
Track 5 accurately ripped (confidence 3) [B123E720]
Track 6 accurately ripped (confidence 3) [ED836B1C]
Track 7 accurately ripped (confidence 3) [A57BD617]
Track 8 accurately ripped (confidence 3) [82AA572C]
Track 9 accurately ripped (confidence 3) [CB96B8D3]
Track 10 accurately ripped (confidence 3) [2FB651C7]

All tracks accurately ripped

End of status report

[CUETools log; Date: 05.11.2017 12:41:03; Version: 2.1.4]
[CTDB TOCID: D9qWw7WeKcLZWf4KScCS2DkAl2s-] found.
Track | CTDB Status
1 | (14/14) Accurately ripped
2 | (14/14) Accurately ripped
3 | (14/14) Accurately ripped
4 | (14/14) Accurately ripped
5 | (14/14) Accurately ripped
6 | (14/14) Accurately ripped
7 | (14/14) Accurately ripped
8 | (14/14) Accurately ripped
9 | (14/14) Accurately ripped
10 | (14/14) Accurately ripped
[AccurateRip ID: 001aed99-00d54c9c-8910840a] found.
Track [ CRC | V2 ] Status
01 [9614c69d|4a3ba06f] (05+00/11) Accurately ripped
02 [da34c954|f947ad7c] (05+00/11) Accurately ripped
03 [bac1bc9f|139579ac] (05+00/11) Accurately ripped
04 [2e0efe7c|b0543e0b] (05+00/11) Accurately ripped
05 [b123e720|3573114a] (05+00/11) Accurately ripped
06 [ed836b1c|127dc0a9] (05+00/11) Accurately ripped
07 [a57bd617|e06bacbb] (05+00/11) Accurately ripped
08 [82aa572c|7e20971d] (05+00/11) Accurately ripped
09 [cb96b8d3|72b3eea3] (05+00/11) Accurately ripped
10 [2fb651c7|35af9316] (05+00/11) Accurately ripped
Offsetted by -18:
01 [66339a1f] (04/11) Accurately ripped
02 [e4fb8a02] (04/11) Accurately ripped
03 [ddfd4e31] (04/11) Accurately ripped
04 [7310af70] (04/11) Accurately ripped
05 [303bb326] (04/11) Accurately ripped
06 [3af52ed4] (04/11) Accurately ripped
07 [c3a153d7] (04/11) Accurately ripped
08 [31e6c91a] (04/11) Accurately ripped
09 [e683dee1] (04/11) Accurately ripped
10 [24a8b4a7] (04/11) Accurately ripped

Track Peak [ CRC32 ] [W/O NULL] [ LOG ]
– 99,5 [1D4731B9] [650577EB] CRC32
01 97,7 [63A6437C] [6EF331DE]
02 97,1 [74FE6D24] [B74105EF]
03 99,5 [D38F309D] [BC349DB6]
04 97,9 [470AA3E1] [0AB85B40]
05 98,8 [370B4974] [ED9BBEFA]
06 98,6 [B8281605] [E313FDDA]
07 96,9 [0965C0DD] [97B0B223]
08 97,0 [EC81BC8D] [8A58C279]
09 98,8 [86D829F2] [0896BE15]
10 98,8 [572FEBC8] [5A35D69A]

Thanks to the original releaser