Tags
Language
Tags

Tangerine Dream - Catch Me If You Can (OST) (1994)

Posted By: gribovar
Tangerine Dream - Catch Me If You Can (OST) (1994)

Tangerine Dream - Catch Me If You Can (OST) (1994)
EAC Rip | APE (image+.cue+log) - 216 MB | MP3 CBR 320 kbps (LAME 3.93) - 104 MB | Covers included
Genre: Progressive Electronic, Berlin School | RAR 3% Rec. | Label: Edel America Records (CIN 2213-2)

Another old TD soundtrack had been made available on CD in 1994. The story of the US film, directed by Stephen Sommers in 1989, does not seem very extraordinary: it deals with the well known subject of man and woman, cars and money… As stated on the CD insert, this album was prepared without the musical authorisation of TD. This resulted in a large number of very short music tracks.
Tracklist:
01. Dylan's Future
02. Sad Melissa
03. Fast Eddie's Car
04. Back To The Race
05. Melissa Asks Dylan Out
06. Dylan Alone At Home
07. Melissa Needs Help
08. The Kiss
09. Racing Montage
10. The Clock Is Ticking
11. Widow Maker
12. Dylan's Dream
13. Taking The Test
14. Back To The Race Again
15. One More Chance
16. Melissa's Challenge
17. Widow Maker Race
18. Dylan's Triumph
19. Catch Me If You Can Main Theme

Total time: 43:40

Exact Audio Copy V0.99 prebeta 5 from 4. May 2009

EAC extraction logfile from 19. January 2010, 13:25

Tangerine Dream / Catch Me If You Can

Used drive : ASUS DRW-2014S1 Adapter: 0 ID: 0

Read mode : Secure
Utilize accurate stream : Yes
Defeat audio cache : Yes
Make use of C2 pointers : No

Read offset correction : 6
Overread into Lead-In and Lead-Out : No
Fill up missing offset samples with silence : Yes
Delete leading and trailing silent blocks : No
Null samples used in CRC calculations : Yes
Used interface : Native Win32 interface for Win NT & 2000

Used output format : Internal WAV Routines
Sample format : 44.100 Hz; 16 Bit; Stereo


TOC of the extracted CD

Track | Start | Length | Start sector | End sector
––––––––––––––––––––––––––––-
1 | 0:00.00 | 4:45.57 | 0 | 21431
2 | 4:45.57 | 2:09.20 | 21432 | 31126
3 | 6:55.02 | 1:31.60 | 31127 | 38011
4 | 8:26.62 | 2:20.03 | 38012 | 48514
5 | 10:46.65 | 1:18.12 | 48515 | 54376
6 | 12:05.02 | 3:27.68 | 54377 | 69969
7 | 15:32.70 | 1:04.22 | 69970 | 74791
8 | 16:37.17 | 1:02.60 | 74792 | 79501
9 | 17:40.02 | 3:43.43 | 79502 | 96269
10 | 21:23.45 | 2:16.15 | 96270 | 106484
11 | 23:39.60 | 1:44.50 | 106485 | 114334
12 | 25:24.35 | 1:28.07 | 114335 | 120941
13 | 26:52.42 | 1:30.35 | 120942 | 127726
14 | 28:23.02 | 2:31.45 | 127727 | 139096
15 | 30:54.47 | 2:28.60 | 139097 | 150256
16 | 33:23.32 | 1:26.05 | 150257 | 156711
17 | 34:49.37 | 2:46.18 | 156712 | 169179
18 | 37:35.55 | 4:18.30 | 169180 | 188559
19 | 41:54.10 | 1:45.47 | 188560 | 196481


Range status and errors

Selected range

Filename D:\EAC\Tangerine Dream - Catch Me If You Can.wav

Peak level 98.8 %
Range quality 100.0 %
Test CRC 41BEB7CE
Copy CRC 41BEB7CE
Copy OK

No errors occurred


AccurateRip summary

Track 1 accurately ripped (confidence 3) [46908252]
Track 2 accurately ripped (confidence 3) [D667A170]
Track 3 accurately ripped (confidence 3) [01532C52]
Track 4 accurately ripped (confidence 3) [7823A70A]
Track 5 accurately ripped (confidence 3) [0C0A3373]
Track 6 accurately ripped (confidence 3) [D80091C7]
Track 7 accurately ripped (confidence 3) [FEFE15AB]
Track 8 accurately ripped (confidence 3) [2EC1CAD5]
Track 9 accurately ripped (confidence 3) [FE5B6C67]
Track 10 accurately ripped (confidence 3) [3B0EEE55]
Track 11 accurately ripped (confidence 3) [EC6201DF]
Track 12 accurately ripped (confidence 3) [58B68EA8]
Track 13 accurately ripped (confidence 3) [82F4FB17]
Track 14 accurately ripped (confidence 3) [DCED5C14]
Track 15 accurately ripped (confidence 3) [E913D3C6]
Track 16 accurately ripped (confidence 3) [FFC5FE70]
Track 17 accurately ripped (confidence 3) [02F271F8]
Track 18 accurately ripped (confidence 3) [8BE43437]
Track 19 accurately ripped (confidence 3) [6185A43E]

All tracks accurately ripped

End of status report

[CUETools log; Date: 26.10.2017 15:45:46; Version: 2.1.4]
[CTDB TOCID: IXpuTOGjqf5eZwODFLqZXa.VCZI-] found.
Track | CTDB Status
1 | (17/17) Accurately ripped
2 | (17/17) Accurately ripped
3 | (17/17) Accurately ripped
4 | (17/17) Accurately ripped
5 | (17/17) Accurately ripped
6 | (17/17) Accurately ripped
7 | (17/17) Accurately ripped
8 | (17/17) Accurately ripped
9 | (17/17) Accurately ripped
10 | (17/17) Accurately ripped
11 | (17/17) Accurately ripped
12 | (17/17) Accurately ripped
13 | (17/17) Accurately ripped
14 | (17/17) Accurately ripped
15 | (17/17) Accurately ripped
16 | (17/17) Accurately ripped
17 | (17/17) Accurately ripped
18 | (17/17) Accurately ripped
19 | (16/17) Accurately ripped
[AccurateRip ID: 001e451e-019fa415-070a3b13] found.
Track [ CRC | V2 ] Status
01 [46908252|b698487c] (09+10/19) Accurately ripped
02 [d667a170|4360fef6] (09+10/19) Accurately ripped
03 [01532c52|f983e37d] (09+10/19) Accurately ripped
04 [7823a70a|31e260cb] (09+10/19) Accurately ripped
05 [0c0a3373|edbd4b69] (09+10/19) Accurately ripped
06 [d80091c7|569591da] (09+10/19) Accurately ripped
07 [fefe15ab|1613cded] (09+10/19) Accurately ripped
08 [2ec1cad5|cddaad5a] (09+10/19) Accurately ripped
09 [fe5b6c67|d35c1408] (09+10/19) Accurately ripped
10 [3b0eee55|03b20c05] (09+10/19) Accurately ripped
11 [ec6201df|590c17c2] (09+10/19) Accurately ripped
12 [58b68ea8|283d8df7] (09+10/19) Accurately ripped
13 [82f4fb17|df4a1016] (09+10/19) Accurately ripped
14 [dced5c14|87b74cfa] (09+10/19) Accurately ripped
15 [e913d3c6|33a8be2e] (09+10/19) Accurately ripped
16 [ffc5fe70|b3afea1a] (09+10/19) Accurately ripped
17 [02f271f8|e589778f] (09+10/19) Accurately ripped
18 [8be43437|035ca7ae] (09+10/19) Accurately ripped
19 [6185a43e|37c28cc3] (09+10/19) Accurately ripped

Track Peak [ CRC32 ] [W/O NULL] [ LOG ]
– 98,8 [41BEB7CE] [5F1976BE] CRC32
01 92,4 [2CBA1CA6] [8F4085EC]
02 56,0 [CAE55CF4] [A12EC7E7]
03 69,5 [D3499E41] [47BE0086]
04 95,3 [F6FF7DED] [E9C2F0A7]
05 79,6 [CE972E7D] [724F51B5]
06 55,4 [FA2B5CC1] [3D54D2FA]
07 61,8 [91532C4F] [22AB3FD2]
08 40,4 [BA6D8C8B] [552A7F18]
09 85,5 [746E64FB] [F9278AD5]
10 79,7 [97B7C6EC] [66822D28]
11 81,5 [8204709A] [FF6F5BB0]
12 73,0 [E7BF9BFB] [A98FF067]
13 39,5 [8E9FD82C] [DDB98A30]
14 98,8 [DD42452A] [0C5B5EAC]
15 58,3 [62DC75C4] [24F69FDD]
16 58,7 [411B4A49] [427F5003]
17 96,5 [7CC425B5] [F643DEA9]
18 98,8 [7AE33812] [213E52A6]
19 93,3 [0EC29841] [1134255D]

Thanks to the original releaser