Tags
Language
Tags

Tangerine Dream - Cleveland - June 24th 1986 (2005)

Posted By: gribovar
Tangerine Dream - Cleveland - June 24th 1986 (2005)

Tangerine Dream - Cleveland - June 24th 1986 (2005)
EAC Rip | APE (image+.cue+log) - 567 MB | MP3 CBR 320 kbps (LAME 3.93) - 228 MB | Covers (5 MB) included
Genre: Progressive Electronic | RAR 3% Rec. | Label: TDC (BOOTMOON006CD)

Originally part of a fan-based live bootleg recording project called Bootmoon, this recording of the pioneering and influential German electronic outfit Tangerine Dream is part of a series of unadorned live performances (the band habitually added post-production instrumentation and otherwise altered its sound on its official live releases). This mid-1980s performance in Cleveland presents a series of cinematic-sounding compositions that make full use of the available electronic technologies of the period, including sequencers and synthetic percussion, to heighten the sense of musical drama.
CD 1 Tracklist:
01. Pilots Of Purple Twilight
02. Stratosfear 86
03. Akash Deep
04. Beneath The Waves
05. Zen Garden
06. Scuba Scuba
07. Coloured Rain

Total time: 43:03

CD 2 Tracklist:
01. Piano Medley
02. Dolphin Dance
03. The Velvet Garden
04. Ride On The Ray
05. Going West
06. Yellowstone Park
07. Underwater Twilight
08. Legend Leftover
09. Unicorn Theme

Total time: 51:31

Exact Audio Copy V0.99 prebeta 5 from 4. May 2009

EAC extraction logfile from 24. November 2010, 14:03

Tangerine Dream / Cleveland - June 24th 1986

Used drive : ASUS DRW-22B2L Adapter: 0 ID: 0

Read mode : Secure
Utilize accurate stream : Yes
Defeat audio cache : Yes
Make use of C2 pointers : No

Read offset correction : 6
Overread into Lead-In and Lead-Out : No
Fill up missing offset samples with silence : Yes
Delete leading and trailing silent blocks : No
Null samples used in CRC calculations : Yes
Used interface : Native Win32 interface for Win NT & 2000

Used output format : Internal WAV Routines
Sample format : 44.100 Hz; 16 Bit; Stereo


TOC of the extracted CD

Track | Start | Length | Start sector | End sector
––––––––––––––––––––––––––––-
1 | 0:00.00 | 7:44.41 | 0 | 34840
2 | 7:44.41 | 4:40.43 | 34841 | 55883
3 | 12:25.09 | 13:14.22 | 55884 | 115455
4 | 25:39.31 | 3:14.12 | 115456 | 130017
5 | 28:53.43 | 5:19.71 | 130018 | 154013
6 | 34:13.39 | 4:39.23 | 154014 | 174961
7 | 38:52.62 | 4:10.16 | 174962 | 193727


Range status and errors

Selected range

Filename D:\EAC\Tangerine Dream - Cleveland - June 24th 1986.wav

Peak level 99.9 %
Range quality 100.0 %
Test CRC 72105FB4
Copy CRC 72105FB4
Copy OK

No errors occurred


AccurateRip summary

Track 1 accurately ripped (confidence 4) [29E63DBF]
Track 2 accurately ripped (confidence 4) [9A6487BB]
Track 3 accurately ripped (confidence 4) [8B21F1F5]
Track 4 accurately ripped (confidence 4) [7039BCB2]
Track 5 accurately ripped (confidence 4) [CED4080F]
Track 6 accurately ripped (confidence 4) [EAD9E2C3]
Track 7 accurately ripped (confidence 4) [4F11538F]

All tracks accurately ripped

End of status report

[CUETools log; Date: 13.12.2017 23:14:21; Version: 2.1.4]
[CTDB TOCID: c5lzOTt6ZwWSkDMnI3QY7WV_cxE-] found.
Track | CTDB Status
1 | (18/18) Accurately ripped
2 | (18/18) Accurately ripped
3 | (18/18) Accurately ripped
4 | (18/18) Accurately ripped
5 | (18/18) Accurately ripped
6 | (18/18) Accurately ripped
7 | (18/18) Accurately ripped
[AccurateRip ID: 000d1b17-004d0653-570a1707] found.
Track [ CRC | V2 ] Status
01 [29e63dbf|8e75bdb4] (09+08/17) Accurately ripped
02 [9a6487bb|45d77ac6] (09+08/17) Accurately ripped
03 [8b21f1f5|672b9cb9] (09+08/17) Accurately ripped
04 [7039bcb2|80650395] (09+08/17) Accurately ripped
05 [ced4080f|07c67f5f] (09+08/17) Accurately ripped
06 [ead9e2c3|63753022] (09+08/17) Accurately ripped
07 [4f11538f|f74cc400] (09+08/17) Accurately ripped

Track Peak [ CRC32 ] [W/O NULL] [ LOG ]
– 99,9 [72105FB4] [A669DCD0] CRC32
01 98,2 [DBD3B966] [975B361B]
02 99,9 [CEC6FC3B] [CB66DF90]
03 99,9 [3A063F68] [DE1F045A]
04 85,5 [6F8548A3] [6CE30063]
05 99,9 [E198ECD4] [ACE54221]
06 97,0 [3978C7CA] [51B05591]
07 75,2 [476E7A00] [05820C1E]

Exact Audio Copy V0.99 prebeta 5 from 4. May 2009

EAC extraction logfile from 24. November 2010, 15:09

Tangerine Dream / Cleveland - June 24th 1986

Used drive : ASUS DRW-22B2L Adapter: 0 ID: 0

Read mode : Secure
Utilize accurate stream : Yes
Defeat audio cache : Yes
Make use of C2 pointers : No

Read offset correction : 6
Overread into Lead-In and Lead-Out : No
Fill up missing offset samples with silence : Yes
Delete leading and trailing silent blocks : No
Null samples used in CRC calculations : Yes
Used interface : Native Win32 interface for Win NT & 2000

Used output format : Internal WAV Routines
Sample format : 44.100 Hz; 16 Bit; Stereo


TOC of the extracted CD

Track | Start | Length | Start sector | End sector
––––––––––––––––––––––––––––-
1 | 0:00.00 | 4:33.17 | 0 | 20491
2 | 4:33.17 | 7:27.17 | 20492 | 54033
3 | 12:00.34 | 2:02.25 | 54034 | 63208
4 | 14:02.59 | 11:06.53 | 63209 | 113211
5 | 25:09.37 | 5:28.46 | 113212 | 137857
6 | 30:38.08 | 6:05.52 | 137858 | 165284
7 | 36:43.60 | 4:27.57 | 165285 | 185366
8 | 41:11.42 | 3:58.22 | 185367 | 203238
9 | 45:09.64 | 6:20.69 | 203239 | 231807


Range status and errors

Selected range

Filename D:\EAC\Tangerine Dream - Cleveland - June 24th 1986 (CD 2).wav

Peak level 99.9 %
Range quality 100.0 %
Test CRC AE6D4DC3
Copy CRC AE6D4DC3
Copy OK

No errors occurred


AccurateRip summary

Track 1 accurately ripped (confidence 4) [58D1AE3F]
Track 2 accurately ripped (confidence 4) [2B83EADD]
Track 3 accurately ripped (confidence 4) [AB664242]
Track 4 accurately ripped (confidence 4) [9731AD38]
Track 5 accurately ripped (confidence 4) [374CCC98]
Track 6 accurately ripped (confidence 4) [54E2073E]
Track 7 accurately ripped (confidence 4) [6A66A49E]
Track 8 accurately ripped (confidence 4) [7C40DF45]
Track 9 accurately ripped (confidence 4) [19201B23]

All tracks accurately ripped

End of status report

[CUETools log; Date: 13.12.2017 23:15:16; Version: 2.1.4]
[CTDB TOCID: OYdCWBtKjsg_eCCLWLmTJ.JG7OY-] found.
Track | CTDB Status
1 | (15/15) Accurately ripped
2 | (15/15) Accurately ripped
3 | (15/15) Accurately ripped
4 | (15/15) Accurately ripped
5 | (15/15) Accurately ripped
6 | (15/15) Accurately ripped
7 | (15/15) Accurately ripped
8 | (15/15) Accurately ripped
9 | (15/15) Accurately ripped
[AccurateRip ID: 0011ebe8-0083c785-640c1209] found.
Track [ CRC | V2 ] Status
01 [58d1ae3f|c5764c85] (09+09/18) Accurately ripped
02 [2b83eadd|40ab78cb] (09+09/18) Accurately ripped
03 [ab664242|1da4b895] (09+09/18) Accurately ripped
04 [9731ad38|1116880c] (09+09/18) Accurately ripped
05 [374ccc98|ae028f6b] (09+09/18) Accurately ripped
06 [54e2073e|579d064b] (09+09/18) Accurately ripped
07 [6a66a49e|c34829ab] (09+09/18) Accurately ripped
08 [7c40df45|fca85b4b] (09+09/18) Accurately ripped
09 [19201b23|727e3282] (09+09/18) Accurately ripped

Track Peak [ CRC32 ] [W/O NULL] [ LOG ]
– 99,9 [AE6D4DC3] [BB18CDCF] CRC32
01 59,8 [00AE14A0] [B6CEE910]
02 99,9 [2E579C38] [1F5B7528]
03 75,8 [EDDD6787] [21BD85F5]
04 99,9 [3D7398EC] [49358E20]
05 99,9 [683302F7] [5EF9E1E2]
06 99,9 [F9D94F64] [A8D1F5F8]
07 99,9 [2A885131] [448F3B43]
08 99,9 [86438DD5] [FC3001D4]
09 99,9 [EEB15D5A] [0491E0B8]

Thanks to original releaser