Subcategories
Tags
Language
Tags

Tangerine Dream - Exit (1981) [Definitive Edition 1995]

Posted By: gribovar
Tangerine Dream - Exit (1981) [Definitive Edition 1995]

Tangerine Dream - Exit (1981) [Definitive Edition 1995]
EAC Rip | APE (image+.cue+log) - 214 MB | MP3 CBR 320 kbps (LAME 3.93) - 93 MB | Covers (7 MB) included
Genre: Traditional Electronic, Berlin School | RAR 3% Rec. | Label: Virgin Records (7243 8 40519 2 1, TAND13)

Exit marks the beginning of a new phase in Tangerine Dream's music: Gone were the side-long, sequencer-led journeys, replaced by topical pieces that were more self-contained in scope, more contemporary in sound. Johannes Schmoelling's influence is really felt for the first time here; Tangram, for all its crispness and melody, was simply a refinement of Force Majeure's principles, and the soundtrack to Thief not an album proper. On Exit, listeners are introduced to electronic music's next generation, notably on "Choronzon" and "Network 23," which brought the sound of the dancefloor into the mix (it hasn't left since). That's not to suggest that Tangerine Dream has stopped creating eerie, evocative music; both "Pilots of Purple Twilight" and the stately "Exit" will feel familiar to fans, and the opening "Kiew Mission" is a captivating commentary on nuclear war that includes vocals after a sort (a woman's voice reading locations in Russian). Exit ends on a surprisingly dark note, the alien and foreboding "Remote Viewing." It's on this track more than any other that Tangerine Dream returns to its past, invoking Phaedra and the sequencer-driven works that followed, as if to tell fans that Exit's changes weren't the result of a new band, just a new direction. With one foot in the excesses of the past and one clearly on the road to a more concise sound, Exit is a transitional work. As Schmoelling and, later, Paul Haslinger exerted their influence on Tangerine Dream's music, the emphasis shifted from dark and moody commentary to more positive subjects. It's worth noting that Edgar Froese's social conscience fuels much of Exit - copies of the record were made available to a cross-section of Russian citizens free of charge to promote an open exchange of ideas at a time when nuclear annihilation was taken seriously. Future albums channeled Froese's activism to environmental concerns, which dovetailed with the band's by-then new age sensibilities. Both here and on White Eagle, Tangerine Dream ushers in the promise and the peril of a new world where reality has caught up with science fiction. Perhaps with such a message, the medium needed to be simpler and more direct.

Tracklist:
01. Kiew Mission
02. Pilots Of Purple Twilight
03. Choronzon
04. Exit
05. Network 23
06. Remote Viewing

Total time: 36:46

Exact Audio Copy V0.99 prebeta 1 from 25. May 2007

EAC extraction logfile from 10. January 2008, 11:43

Tangerine Dream / Exit

Used drive : PIONEER DVD-RW DVR-111 Adapter: 4 ID: 0

Read mode : Secure
Utilize accurate stream : Yes
Defeat audio cache : Yes
Make use of C2 pointers : No

Read offset correction : 48
Overread into Lead-In and Lead-Out : No
Fill up missing offset samples with silence : Yes
Delete leading and trailing silent blocks : No
Used interface : Installed external ASPI interface

Used output format : User Defined Encoder
Selected bitrate : 32 kBit/s
Quality : High
Add ID3 tag : No
Command line compressor : C:\Program Files\Exact Audio Copy\wapet.exe
Additional command line options : %d -t "Artist=%a" -t "Title=%t" -t "Album=%g" -t "Year=%y" -t "Track=%n" -t "Genre=%m" mac.exe %s %d -c3000 -v


TOC of the extracted CD

Track | Start | Length | Start sector | End sector
––––––––––––––––––––––––––––-
1 | 0:00.00 | 9:21.67 | 0 | 42141
2 | 9:21.67 | 4:21.43 | 42142 | 61759
3 | 13:43.35 | 4:09.67 | 61760 | 80501
4 | 17:53.27 | 5:35.23 | 80502 | 105649
5 | 23:28.50 | 4:57.70 | 105650 | 127994
6 | 28:26.45 | 8:19.17 | 127995 | 165436


Range status and errors

Selected range

Filename C:\neww\Tangerine Dream - Exit.wav

Peak level 100.0 %
Range quality 100.0 %
Copy CRC BA8D20A6
Copy OK


AccurateRip summary

Track 1 accurately ripped (confidence 8) [86159E8A]
Track 2 accurately ripped (confidence 8) [19F388F9]
Track 3 accurately ripped (confidence 8) [97E5DD85]
Track 4 accurately ripped (confidence 8) [BB31AC5B]
Track 5 accurately ripped (confidence 8) [DF85504F]
Track 6 accurately ripped (confidence 8) [5F240F11]

No errors occurred

End of status report

[CUETools log; Date: 12.05.2021 16:54:52; Version: 2.1.4]
[CTDB TOCID: 9BFJX1G_DxkPt4xYj0fBHcLmAW0-] found.
Track | CTDB Status
1 | (254/278) Accurately ripped
2 | (257/278) Accurately ripped
3 | (257/278) Accurately ripped
4 | (258/278) Accurately ripped
5 | (258/278) Accurately ripped
6 | (258/278) Accurately ripped
[AccurateRip ID: 0008e73e-002e79dc-42089d06] found.
Track [ CRC | V2 ] Status
01 [86159e8a|cefae31c] (037+053/176) Accurately ripped
02 [19f388f9|c7fdcd2c] (037+054/179) Accurately ripped
03 [97e5dd85|bb5c39cc] (039+053/178) Accurately ripped
04 [bb31ac5b|fab0e027] (038+054/179) Accurately ripped
05 [df85504f|9140e52f] (037+053/176) Accurately ripped
06 [5f240f11|b426bd0c] (038+053/176) Accurately ripped
Offsetted by -86:
01 [953b48b2] (010/176) Accurately ripped
02 [b440234d] (012/179) Accurately ripped
03 [2dee4f49] (010/178) Accurately ripped
04 [069c924b] (011/179) Accurately ripped
05 [f6734239] (010/176) Accurately ripped
06 [5aa17c79] (010/176) Accurately ripped
Offsetted by -2257:
01 [3a4e6086] (000/176) No match (V2 was not tested)
02 [803f07d7] (000/179) No match (V2 was not tested)
03 [31f31c0b] (000/178) No match (V2 was not tested)
04 [49d0cdc3] (000/179) No match (V2 was not tested)
05 [5a07c0de] (000/176) No match (V2 was not tested)
06 [dee3d1bb] (000/176) No match (V2 was not tested)
Offsetted by -116:
01 [88a7adba] (000/176) No match (V2 was not tested)
02 [07d7e211] (000/179) No match (V2 was not tested)
03 [20c794bd] (000/178) No match (V2 was not tested)
04 [97fd657b] (000/179) No match (V2 was not tested)
05 [51cc375b] (000/176) No match (V2 was not tested)
06 [2f6213c1] (000/176) No match (V2 was not tested)
Offsetted by -104:
01 [27491eea] (000/176) No match (V2 was not tested)
02 [e667fc29] (000/179) No match (V2 was not tested)
03 [593d78f5] (000/178) No match (V2 was not tested)
04 [5dd6aa9b] (000/179) No match (V2 was not tested)
05 [60756ee7] (000/176) No match (V2 was not tested)
06 [a7150a71] (000/176) No match (V2 was not tested)
Offsetted by 2570:
01 [bb7a7a32] (000/176) No match
02 [762c080d] (000/179) No match
03 [a930f509] (000/178) No match
04 [6a75ab4b] (000/179) No match (V2 was not tested)
05 [a36b4899] (000/176) No match
06 [2d5c19f9] (000/176) No match

Track Peak [ CRC32 ] [W/O NULL] [ LOG ]
– 100,0 [BA8D20A6] [435AE1D1] CRC32
01 96,7 [C3F1457D] [31FB63AF]
02 81,5 [1D3514FB] [8592F48F]
03 98,0 [961BE1A4] [76EDF4CE]
04 78,4 [82148901] [D03CC96A]
05 100,0 [1C3DD687] [945ABC86]
06 59,5 [C5036823] [40E69F4F]

Thanks to recoil-PREDATOR

See also:
Tangerine Dream - The Electronic Journey (2010) [10CD Box Set]
Tangerine Dream - The Dream Roots Collection [5CD Box Set] (1996)
Tangerine Dream - Electronic Meditation (1970) [Reissue 1996]
Tangerine Dream - Alpha Centauri (1971) [Reissue 1996]
Tangerine Dream - Alpha Centauri (1971) [Reissue 2011]
Tangerine Dream - Zeit (1972) [Reissue 1996]
Tangerine Dream - Atem (1973) [Reissue 2011]
Tangerine Dream - Phaedra (1974) [Original Edition]
Tangerine Dream - Phaedra (1974) [Definitive Edition 1995]
Tangerine Dream - Rubycon (1975) [Non-remastered, Reissue 1988]
Tangerine Dream - Rubycon (1975) [Definitive Edition 1995]
Tangerine Dream - Ricochet (1975) [Definitive Edition 1995]
Tangerine Dream - Stratosfear (1976) [Definitive Edition 1995]
Tangerine Dream - Encore (1977)
Tangerine Dream - Sorcerer (OST) (1977) [Reissue 2011]
Tangerine Dream - Force Majeure (1979) [Reissue 1995]
Tangerine Dream - Tangram (1980)
Tangerine Dream - Pergamon (1980) [Reissue 1996]
Tangerine Dream - Thief [OST] (1981) [Definitive Edition 1995]
Tangerine Dream - White Eagle (1982) [Reissue 1995]
Tangerine Dream - Logos Live (1982) [Definitive Edition 1995]
Tangerine Dream - Hyperborea (1983)
Tangerine Dream - Wavelength [OST] (1983)
Tangerine Dream - Poland - The Warsaw Concert (1984) [Reissue 2011]
Tangerine Dream - Firestarter ...ion Picture Soundtrack] (1984)
Tangerine Dream - Underwater Sunlight (1986) [Non-Remastered]
Tangerine Dream - Underwater Sunlight (1986) [Reissue 1996]
Tangerine Dream - Green Desert [Recorded 1973] (1986)
Tangerine Dream - Legend (OST) (1986) [Reissue 1995]
Tangerine Dream - Tyger (1987) [Reissue 1992, US version]
Tangerine Dream - Tyger (1987) [Reissue 1996]
Tangerine Dream - Three O'Clock High [OST] (1987)
Tangerine Dream - Optical Race (1988)
Tangerine Dream - Live Miles (1988) [Reissue 2003]
Tangerine Dream - Lily On The Beach (1989)
Tangerine Dream - Melrose (1990)
Tangerine Dream - Dead Solid Perfect (OST) (1990)
Tangerine Dream - The Park Is Mine (OST) (1991)
Tangerine Dream - Rockoon (1992) [Reissue 2000]
Tangerine Dream - Deadly Care (OST) (1992)
Tangerine Dream - Quinoa (1992) [Reissue 2009]
Tangerine Dream - The Story Of Tangerine Dream (1992)
Tangerine Dream - Catch Me If You Can (OST) (1994)
Tangerine Dream - Tyranny Of Beauty (1995)
Tangerine Dream - Goblins' Club (1996)
Tangerine Dream - Zoning (OST) (1996)
Tangerine Dream - The Analogue Space Years 1969-1973 (1998)
Tangerine Dream - The Hollywood Years Vol. 1 (1998)
Tangerine Dream - The Hollywood Years Vol. 2 (1998)
Tangerine Dream - Atlantic Bridges [Recorded 1988-1997] (1998)
Tangerine Dream - Antique Dreams (2000)
Tangerine Dream - Soundmill Navigator (2000)
Tangerine Dream - The Bootleg Box Set Vol. 1 [7CD] (2003)
Tangerine Dream - Rockface: Li...ey / San Francisco 1988 (2003)
Tangerine Dream - Purgatorio (2004)
Tangerine Dream - Arizona Live '92 (2004) [Reissue 2009]
Tangerine Dream - Rocking Mars (2005)
Tangerine Dream - Phaedra 2005 (2005) [Japanese Edition 2009]
Tangerine Dream - Cleveland - June 24th 1986 (2005)
Tangerine Dream - Blue Dawn (2006)
Tangerine Dream - The Essential Tangerine Dream (2006)
Tangerine Dream - Plays Tangerine Dream (2006)
Tangerine Dream - One Times One (2007)
Tangerine Dream - Springtime In Nagasaki (2007)
Tangerine Dream - Summer In Nagasaki (2007)
Tangerine Dream - Autumn In Hiroshima (2008)
Tangerine Dream - Views From A Red Train (2008)
Tangerine Dream - Booster (2008)
Tangerine Dream - Booster Vol. 2 (2008)
Tangerine Dream - The Antholog... Space Years Volume One (2008)
Tangerine Dream - Flame (2009)
Tangerine Dream - Booster III (2009)
Tangerine Dream - Axiat [Recorded 1999-2005] (2009)
Tangerine Dream - Music For Sports: Cool Races (2009)
Tangerine Dream - Music For Sports: Power And Motion (2009)
Tangerine Dream - Under Cover - Chapter One (2010)
Tangerine Dream - DM V (Dream Mixes V) (2010)
Tangerine Dream - The Endless Season (2010)
Tangerine Dream - The London Eye Concert (2010)
Tangerine Dream - Zeitgeist Concert [3CD Box Set] (2010)
Tangerine Dream - Mona Da Vinci (2011)
Tangerine Dream - The Virgin Years 1974-1978 [3CD Box Set] (2011)
Tangerine Dream - Booster IV (2011)
Tangerine Dream - Booster V (2012)
Tangerine Dream - The Official...ies Vol.1 [4CD Box Set] (2015)
Tangerine Dream - Live At The Tempodrome Berlin (2006) [DVD]
Tangerine Dream - Live At Coventry Cathedral 1975 (2007) [DVD]
Tangerine Dream - Madcap's Flaming Duty [DVD] (2007)
Tangerine Dream - 35th Phaedra Anniversary Concert [2DVD] (2007)
Edgar Froese - 2 Albums (1974-1995)
Edgar Froese - Ages (1978) [Reissue 1997]
Edgar Froese - Pinnacles (1983)