Tags
Language
Tags

Tangerine Dream - Force Majeure (1979) [Reissue 1995]

Posted By: gribovar
Tangerine Dream - Force Majeure (1979) [Reissue 1995]

Tangerine Dream - Force Majeure (1979) [Reissue 1995]
EAC Rip | FLAC (image+.cue+log) - 260 MB | MP3 CBR 320 kbps (LAME 3.93) - 97 MB | Covers (3 MB) included
Genre: Electronic, Berlin School/Space Rock | RAR 3% Rec. | Label: Virgin Records (7243 8 40259 22)

Although Tangerine Dream is usually associated with synthesizers and the ambient movement that followed over a decade after such albums as Phaedra, Stratosfear, and Rubycon were recorded, Force Majeure shows the band displaying its roots in space rock. This time around, guitar and drums (played by Klaus Krieger) are as prominent as the keyboards. As the name would appear to indicate, the music on the album doesn't seem played so much as propelled forward, the overall pace rarely slackening for long. The title track is a suite that incorporates several distinct themes that segue into a cohesive whole via musical bridges. "Cloudburst Flight" is really an excuse for Edgar Froese to display his virtuosity on the electric six-string, which he does with amazing intensity. "Thru Metamorphic Rocks" begins with what sounds to be an album-ending theme, but then cross-fades into a hypnotic piece that builds upon a constant bed of pulsating sequencers and processed drums with various sound effects and still more keyboards until it fades out completely some 14 minutes later. An absolute necessity to those who might be at all curious about the band, or even successful experiments within the rock genre. Sections of the album would later appear in slightly altered versions on the soundtracks to the movies Risky Business and Thief.

Tracklist:
01. Force Majeure
02. Cloudburst Flight
03. Thru Metamorphic Rocks

Total time: 40:20

Exact Audio Copy V0.99 prebeta 4 from 23. January 2008

EAC extraction logfile from 23. November 2008, 16:32

Tangerine Dream / Force Majeure

Used drive : LITE-ON DVDRW LH-20A1H Adapter: 0 ID: 0

Read mode : Secure
Utilize accurate stream : Yes
Defeat audio cache : Yes
Make use of C2 pointers : No

Read offset correction : 6
Overread into Lead-In and Lead-Out : No
Fill up missing offset samples with silence : Yes
Delete leading and trailing silent blocks : No
Null samples used in CRC calculations : Yes
Used interface : Native Win32 interface for Win NT & 2000

Used output format : User Defined Encoder
Selected bitrate : 1024 kBit/s
Quality : High
Add ID3 tag : No
Command line compressor : C:\Programs\flac\bin\flac.exe
Additional command line options : -V -8 %s


TOC of the extracted CD

Track | Start | Length | Start sector | End sector
––––––––––––––––––––––––––––-
1 | 0:00.00 | 18:21.30 | 0 | 82604
2 | 18:21.30 | 7:28.38 | 82605 | 116242
3 | 25:49.68 | 14:30.12 | 116243 | 181504


Range status and errors

Selected range

Filename D:\My Music\New\Tangerine Dream - 1979 - Force Majeure\Tangerine Dream - 1979 - Force Majeure.wav

Peak level 99.0 %
Range quality 99.9 %
Copy CRC BCBE97B0
Copy OK

No errors occurred


AccurateRip summary

Track 1 accurately ripped (confidence 12) [BCC426B6]
Track 2 accurately ripped (confidence 11) [3FFAAA55]
Track 3 accurately ripped (confidence 10) [875E78D8]

All tracks accurately ripped

End of status report

[CUETools log; Date: 08.10.2018 22:46:47; Version: 2.1.4]
[CTDB TOCID: MwBLHOEY0SBH1oM3bPBIPyKT17A-] found.
Track | CTDB Status
1 | (261/265) Accurately ripped
2 | (261/265) Accurately ripped
3 | (258/265) Accurately ripped
[AccurateRip ID: 0005cdc1-0012eb98-13097403] found.
Track [ CRC | V2 ] Status
01 [bcc426b6|5c9aad28] (048+051/234) Accurately ripped
02 [3ffaaa55|556c3949] (047+051/230) Accurately ripped
03 [875e78d8|6490eb29] (045+050/225) Accurately ripped
Offsetted by -676:
01 [759f05b2] (014/234) Accurately ripped
02 [ef845299] (014/230) Accurately ripped
03 [defac046] (014/225) Accurately ripped
Offsetted by -136:
01 [45eeab6e] (013/234) Accurately ripped
02 [7b87f81d] (013/230) Accurately ripped
03 [a00bb2de] (013/225) Accurately ripped
Offsetted by -142:
01 [35654058] (000/234) No match (V2 was not tested)
02 [b2dd4313] (000/230) No match (V2 was not tested)
03 [7fb53cb3] (000/225) No match (V2 was not tested)
Offsetted by -48:
01 [3878ce06] (000/234) No match (V2 was not tested)
02 [faa50205] (000/230) No match (V2 was not tested)
03 [826132d2] (000/225) No match (V2 was not tested)
Offsetted by -42:
01 [4902391c] (000/234) No match (V2 was not tested)
02 [c34fb70f] (000/230) No match (V2 was not tested)
03 [a297ab31] (000/225) No match (V2 was not tested)
Offsetted by -36:
01 [598ba432] (000/234) No match (V2 was not tested)
02 [8bfa6c19] (000/230) No match (V2 was not tested)
03 [c2c623b4] (000/225) No match (V2 was not tested)
Offsetted by -18:
01 [8b27e574] (000/234) No match (V2 was not tested)
02 [e5fa8b37] (000/230) No match (V2 was not tested)
03 [21888e15] (000/225) No match (V2 was not tested)
Offsetted by 6:
01 [cd4d91cc] (002/234) Accurately ripped
02 [08a55f5f] (000/230) No match
03 [2699f251] (000/225) No match

Track Peak [ CRC32 ] [W/O NULL] [ LOG ]
– 99,0 [BCBE97B0] [0B773F8D] CRC32
01 99,0 [457F64F2] [A50B9B38]
02 98,0 [FAB9AB2A] [084CE4E9]
03 98,0 [54E14978] [FBE163AB]

Thanks to Scrappy Rocky

See also:

Tangerine Dream - The Electronic Journey (2010) [10CD Box Set]
Tangerine Dream - The Dream Roots Collection [5CD Box Set] (1996)
Tangerine Dream - Electronic Meditation (1970) [Reissue 1996]
Tangerine Dream - Zeit (1972) [Reissue 1996]
Tangerine Dream - Phaedra (1974) [Definitive Edition 1995]
Tangerine Dream - Ricochet (1975) [Definitive Edition 1995]
Tangerine Dream - Stratosfear (1976) [Definitive Edition 1995]
Tangerine Dream - Pergamon (1980) [Reissue 1996]
Tangerine Dream - Logos Live (1982) [Definitive Edition 1995]
Tangerine Dream - Legend (OST) (1986) [Reissue 1995]
Tangerine Dream - Optical Race (1988)
Tangerine Dream - Live Miles (1988) [Reissue 2003]
Tangerine Dream - Lily On The Beach (1989)
Tangerine Dream - Melrose (1990)
Tangerine Dream - Dead Solid Perfect (OST) (1990)
Tangerine Dream - The Park Is Mine (OST) (1991)
Tangerine Dream - Deadly Care (OST) (1992)
Tangerine Dream - Quinoa (1992) [Reissue 2009]
Tangerine Dream - Catch Me If You Can (OST) (1994)
Tangerine Dream - Tyranny Of Beauty (1995)
Tangerine Dream - Zoning (OST) (1996)
Tangerine Dream - The Hollywood Years Vol. 1 (1998)
Tangerine Dream - The Hollywood Years Vol. 2 (1998)
Tangerine Dream - Antique Dreams (2000)
Tangerine Dream - Soundmill Navigator (2000)
Tangerine Dream - The Bootleg Box Set Vol. 1 [7CD] (2003)
Tangerine Dream - Purgatorio (2004)
Tangerine Dream - Arizona Live '92 (2004) [Reissue 2009]
Tangerine Dream - Cleveland - June 24th 1986 (2005)
Tangerine Dream - Blue Dawn (2006)
Tangerine Dream - The Essential Tangerine Dream (2006)
Tangerine Dream - Plays Tangerine Dream (2006)
Tangerine Dream - Views From A Red Train (2008)
Tangerine Dream - Booster (2008)
Tangerine Dream - Booster Vol. 2 (2008)
Tangerine Dream - The Antholog... Space Years Volume One (2008)
Tangerine Dream - DM V (Dream Mixes V) (2010)
Tangerine Dream - The London Eye Concert (2010)
Tangerine Dream - Edgar Allan Poe's The Island Of The Fay (2011)
Tangerine Dream - The Virgin Years 1974-1978 [3CD Box Set] (2011)
Tangerine Dream - The Official...ies Vol.1 [4CD Box Set] (2015)
Edgar Froese - 2 Albums (1974-1995)
Edgar Froese - Ages (1978) [Reissue 1997]
Edgar Froese - Pinnacles (1983)