Tags
Language
Tags

Tangerine Dream - Legend (OST) (1986) [Reissue 1995] (Repost)

Posted By: gribovar
Tangerine Dream - Legend (OST) (1986) [Reissue 1995] (Repost)

Tangerine Dream - Legend (OST) (1986) [Reissue 1995]
EAC Rip | FLAC (tracks+.cue+log) - 252 MB | MP3 CBR 320 kbps (LAME 3.93) - 102 MB | Covers (6 MB) included
Genre: Electronic, Ambient | RAR 3% Rec. | Label: Varèse Sarabande (VSD-5645)

The last TD production with Johannes Schmoelling was the soundtrack for Ridley Scott's movie Legend, starring Tom Cruise, Mia Sara, Tim Currie and David Bennent. Jerry Goldsmith was the original composer of the music for Legend, but Universal Studios decided they wanted a more modern sounding music and contracted with TD, Jon Anderson (singer of Yes) and Bryan Ferry (formerly with Roxy Music) to supply new music. The TD score was used for the North American version of the film only, thus the TD soundtrack was released 1986 in USA and Canada only. All other world-wide releases used the Goldsmith film score.

Tracklist:
01. Is Your Love Strong Enough
02. Opening
03. Cottage
04. Unicorn Theme
05. Tangerine Dream Goblins
06. Fairies
07. Loved By The Sun
08. Blue Room
09. The Dance
10. Darkness
11. The Kitchen / Unicorn Theme Reprise

Total time: 40:34

Exact Audio Copy V0.99 prebeta 5 from 4. May 2009

EAC extraction logfile from 28. July 2009, 18:23

Tangerine Dream / Legend

Used drive : _NEC DVD_RW ND-3550A Adapter: 0 ID: 0

Read mode : Secure
Utilize accurate stream : Yes
Defeat audio cache : Yes
Make use of C2 pointers : No

Read offset correction : 48
Overread into Lead-In and Lead-Out : No
Fill up missing offset samples with silence : Yes
Delete leading and trailing silent blocks : No
Null samples used in CRC calculations : Yes
Used interface : Installed external ASPI interface
Gap handling : Appended to previous track

Used output format : User Defined Encoder
Selected bitrate : 128 kBit/s
Quality : High
Add ID3 tag : No
Command line compressor : C:\EACPortable\App\FLAC\flac.exe
Additional command line options : –fast -T "ARTIST=%a" -T "TITLE=%t" -T "ALBUM=%g" -T "DATE=%y" -T "TRACKNUMBER=%n" -T "GENRE=%m" %s


TOC of the extracted CD

Track | Start | Length | Start sector | End sector
––––––––––––––––––––––––––––-
1 | 0:00.00 | 5:12.48 | 0 | 23447
2 | 5:12.48 | 2:54.10 | 23448 | 36507
3 | 8:06.58 | 3:21.52 | 36508 | 51634
4 | 11:28.35 | 3:23.30 | 51635 | 66889
5 | 14:51.65 | 3:01.63 | 66890 | 80527
6 | 17:53.53 | 2:57.30 | 80528 | 93832
7 | 20:51.08 | 5:56.60 | 93833 | 120592
8 | 26:47.68 | 3:24.07 | 120593 | 135899
9 | 30:12.00 | 2:24.30 | 135900 | 146729
10 | 32:36.30 | 3:05.03 | 146730 | 160607
11 | 35:41.33 | 4:53.24 | 160608 | 182606


Track 1

Filename C:\Temp\01 - Is Your Love Strong Enough (Performed By Bryan Ferry).wav

Pre-gap length 0:00:02.00

Peak level 89.1 %
Track quality 100.0 %
Test CRC 0CCBFCF1
Copy CRC 0CCBFCF1
Copy OK

Track 2

Filename C:\Temp\02 - Opening.wav

Pre-gap length 0:00:01.80

Peak level 83.3 %
Track quality 100.0 %
Test CRC 823F7D45
Copy CRC 823F7D45
Copy OK

Track 3

Filename C:\Temp\03 - Cottage.wav

Pre-gap length 0:00:01.04

Peak level 74.9 %
Track quality 100.0 %
Test CRC 527CA6A1
Copy CRC 527CA6A1
Copy OK

Track 4

Filename C:\Temp\04 - Unicorn Theme.wav

Pre-gap length 0:00:02.22

Peak level 85.0 %
Track quality 100.0 %
Test CRC 84CEEC11
Copy CRC 84CEEC11
Copy OK

Track 5

Filename C:\Temp\05 - Goblins.wav

Peak level 94.4 %
Track quality 100.0 %
Test CRC 6DE58394
Copy CRC 6DE58394
Copy OK

Track 6

Filename C:\Temp\06 - Fairies.wav

Pre-gap length 0:00:01.70

Peak level 94.4 %
Track quality 100.0 %
Test CRC 5539B0C4
Copy CRC 5539B0C4
Copy OK

Track 7

Filename C:\Temp\07 - Loved By The Sun (Performed By Jon Anderson).wav

Pre-gap length 0:00:02.04

Peak level 89.1 %
Track quality 100.0 %
Test CRC 44BB8734
Copy CRC 44BB8734
Copy OK

Track 8

Filename C:\Temp\08 - Blue Room.wav

Peak level 65.8 %
Track quality 100.0 %
Test CRC 04168F98
Copy CRC 04168F98
Copy OK

Track 9

Filename C:\Temp\09 - The Dance.wav

Pre-gap length 0:00:01.89

Peak level 94.4 %
Track quality 100.0 %
Test CRC 7A6496E6
Copy CRC 7A6496E6
Copy OK

Track 10

Filename C:\Temp\10 - Darkness.wav

Pre-gap length 0:00:02.20

Peak level 78.9 %
Track quality 100.0 %
Test CRC 88F45EF4
Copy CRC 88F45EF4
Copy OK

Track 11

Filename C:\Temp\11 - The Kitchen - Unicorn Theme Reprise.wav

Pre-gap length 0:00:01.64

Peak level 74.3 %
Track quality 100.0 %
Test CRC 99295CD7
Copy CRC 99295CD7
Copy OK

No errors occurred

End of status report

[CUETools log; Date: 14.11.2017 13:16:32; Version: 2.1.4]
[CTDB TOCID: KHw3XNMWKi9OMzyZmsFvDX9F.mk-] disk not present in database.
[AccurateRip ID: 0010c610-0090341e-9809820b] found.
Track [ CRC | V2 ] Status
01 [b47de57f|ec2802f9] (1+0/2) Accurately ripped
02 [57434e19|e75dfed2] (1+0/2) Accurately ripped
03 [40442aee|9c78130d] (1+0/2) Accurately ripped
04 [b0f92881|107c5b4d] (1+0/2) Accurately ripped
05 [527fa726|127f36d1] (1+0/2) Accurately ripped
06 [4908c300|65c64676] (1+0/2) Accurately ripped
07 [23acebfc|d9cb2df1] (1+0/2) Accurately ripped
08 [8a64fcfe|eaebaa3d] (1+0/2) Accurately ripped
09 [d32ad29a|f73b26b7] (1+0/2) Accurately ripped
10 [d0ec6725|abddea84] (1+0/2) Accurately ripped
11 [c6092c9f|92310ea9] (1+0/2) Accurately ripped

Track Peak [ CRC32 ] [W/O NULL] [ LOG ]
– 94,4 [7BB0AD2A] [8D7CFE11]
01 89,1 [0CCBFCF1] [3875C857] CRC32
02 83,3 [823F7D45] [87FF8465] CRC32
03 74,9 [527CA6A1] [618C3068] CRC32
04 85,0 [84CEEC11] [894F255A] CRC32
05 94,4 [6DE58394] [A79C7EF5] CRC32
06 94,4 [5539B0C4] [C302609E] CRC32
07 89,1 [44BB8734] [71CFF35F] CRC32
08 65,8 [04168F98] [563D581B] CRC32
09 94,4 [7A6496E6] [3EA0EA3B] CRC32
10 78,9 [88F45EF4] [D5D1F6C5] CRC32
11 74,3 [99295CD7] [E30FF47B] CRC32

Thanks to SmaidS