Tags
Language
Tags

Tangerine Dream - Lily On The Beach (1989) (Repost)

Posted By: gribovar
Tangerine Dream - Lily On The Beach (1989) (Repost)

Tangerine Dream - Lily On The Beach (1989)
EAC Rip | FLAC (image+.cue+log) - 361 MB | MP3 CBR 320 kbps (LAME 3.93) - 132 MB | Covers - 77 MB
Genre: Traditional Electronic | RAR 3% Rec. | Label: Private Music (2057-2-P)

"Lily On The Beach", recorded and released in 1989, had two aspects showing TD's musical direction for the nineties: It was the first TD album featuring Edgar Froese's then 19 year old son Jerome Froese as guest musician playing lead guitar on the track Radio City; Jerome would become a regular member of TD in the next year and get more and more influence on TD's work in the future. On the other hand Long Island Sunset was the first TD composition featuring saxophone, an uncommon type of instrument for TD's music of the eighties, but becoming a strong part of their work in the early nineties.
Tracklist:
01. Too Hot For My Chinchilla
02. Lily On The Beach
03. Alaskan Summer
04. Desert Drive
05. Mount Shasta
06. Crystal Curfew
07. Paradise Cove
08. Twenty-Nine Palms
09. Valley Of The Kings
10. Radio City
11. Blue Mango Cafe
12. Gecko
13. Long Island Sunset

Total time: 56:51

Exact Audio Copy V1.0 beta 1 from 15. November 2010

EAC extraction logfile from 24. February 2011, 12:45

Tangerine Dream / Lily On The Beach

Used drive : _NEC DVD_RW ND-3550A Adapter: 1 ID: 0

Read mode : Secure
Utilize accurate stream : Yes
Defeat audio cache : Yes
Make use of C2 pointers : No

Read offset correction : 48
Overread into Lead-In and Lead-Out : No
Fill up missing offset samples with silence : Yes
Delete leading and trailing silent blocks : No
Null samples used in CRC calculations : Yes
Used interface : Native Win32 interface for Win NT & 2000

Used output format : User Defined Encoder
Selected bitrate : 768 kBit/s
Quality : High
Add ID3 tag : No
Command line compressor : C:\Program Files\Exact Audio Copy\FLAC\FLAC.EXE
Additional command line options : -T "DATE=%y" -T "GENRE=%m" -8 -V %s


TOC of the extracted CD

Track | Start | Length | Start sector | End sector
––––––––––––––––––––––––––––-
1 | 0:00.00 | 3:47.55 | 0 | 17079
2 | 3:47.55 | 4:15.27 | 17080 | 36231
3 | 8:03.07 | 3:36.63 | 36232 | 52494
4 | 11:39.70 | 3:50.20 | 52495 | 69764
5 | 15:30.15 | 4:26.65 | 69765 | 89779
6 | 19:57.05 | 5:03.20 | 89780 | 112524
7 | 25:00.25 | 3:50.50 | 112525 | 129824
8 | 28:51.00 | 3:22.70 | 129825 | 145044
9 | 32:13.70 | 5:10.02 | 145045 | 168296
10 | 37:23.72 | 4:08.08 | 168297 | 186904
11 | 41:32.05 | 4:13.15 | 186905 | 205894
12 | 45:45.20 | 3:34.65 | 205895 | 222009
13 | 49:20.10 | 7:00.40 | 222010 | 253549


Range status and errors

Selected range

Filename F:\For Torrent\Новая папка\Tangerine Dream - Lily On The Beach.wav

Peak level 96.2 %
Extraction speed 0.3 X
Range quality 99.9 %
Test CRC 4ED0597C
Copy CRC 4ED0597C
Copy OK

No errors occurred


AccurateRip summary

Track 1 cannot be verified as accurate (confidence 30) [272E79E4], AccurateRip returned [C07E3EF9]
Track 2 cannot be verified as accurate (confidence 31) [939DAAA1], AccurateRip returned [D39D9746]
Track 3 cannot be verified as accurate (confidence 31) [7B5BF8C5], AccurateRip returned [9A2C8803]
Track 4 cannot be verified as accurate (confidence 31) [4FC20C77], AccurateRip returned [61A0C1FE]
Track 5 cannot be verified as accurate (confidence 31) [66398DC0], AccurateRip returned [9945A9B1]
Track 6 cannot be verified as accurate (confidence 31) [984346FC], AccurateRip returned [1E497BFD]
Track 7 cannot be verified as accurate (confidence 30) [FE47D88F], AccurateRip returned [8CF60912]
Track 8 cannot be verified as accurate (confidence 31) [A6184ABC], AccurateRip returned [CA3095E5]
Track 9 cannot be verified as accurate (confidence 31) [E20E48D4], AccurateRip returned [D84ABCFF]
Track 10 cannot be verified as accurate (confidence 31) [CEC5B012], AccurateRip returned [6C37330E]
Track 11 cannot be verified as accurate (confidence 30) [CC5E503B], AccurateRip returned [932F1930]
Track 12 cannot be verified as accurate (confidence 31) [1613F61B], AccurateRip returned [31916E92]
Track 13 cannot be verified as accurate (confidence 31) [3F7027DF], AccurateRip returned [CFBFC92F]

No tracks could be verified as accurate
You may have a different pressing from the one(s) in the database

End of status report

[CUETools log; Date: 09.11.2017 11:59:41; Version: 2.1.4]
[CTDB TOCID: x.JKbelsfK7QBStA.k53jCGGibk-] found.
Track | CTDB Status
1 | (71/71) Accurately ripped
2 | (71/71) Accurately ripped
3 | (70/71) Accurately ripped
4 | (70/71) Accurately ripped
5 | (70/71) Accurately ripped
6 | (71/71) Accurately ripped
7 | (70/71) Accurately ripped
8 | (71/71) Accurately ripped
9 | (65/71) Accurately ripped
10 | (64/71) Accurately ripped
11 | (69/71) Accurately ripped
12 | (71/71) Accurately ripped
13 | (69/71) Accurately ripped
[AccurateRip ID: 0019c73c-0103aaad-b90d340d] found.
Track [ CRC | V2 ] Status
01 [272e79e4|aff55217] (00+02/80) Accurately ripped
02 [939daaa1|85be764d] (00+00/79) No match
03 [7b5bf8c5|b69cf680] (00+02/81) Accurately ripped
04 [4fc20c77|8a1f095e] (00+02/81) Accurately ripped
05 [66398dc0|1cb9e631] (00+02/81) Accurately ripped
06 [984346fc|e7e7b63b] (00+02/81) Accurately ripped
07 [fe47d88f|b60f80a5] (00+02/80) Accurately ripped
08 [a6184abc|e6f42e0e] (00+02/81) Accurately ripped
09 [e20e48d4|76b36aa8] (00+02/81) Accurately ripped
10 [cec5b012|a0d85e1d] (00+02/81) Accurately ripped
11 [cc5e503b|65f512fc] (00+02/80) Accurately ripped
12 [1613f61b|f0239d9c] (00+02/81) Accurately ripped
13 [3f7027df|d742a084] (00+02/81) Accurately ripped
Offsetted by 1432:
01 [b9709d73] (02/80) Accurately ripped
02 [587c8ff8] (02/79) Accurately ripped
03 [d5708309] (02/81) Accurately ripped
04 [aaa53f06] (02/81) Accurately ripped
05 [b100dc4a] (02/81) Accurately ripped
06 [795f322a] (02/81) Accurately ripped
07 [43ed973e] (02/80) Accurately ripped
08 [27cb0e2c] (02/81) Accurately ripped
09 [74e8482c] (02/81) Accurately ripped
10 [072bc7be] (02/81) Accurately ripped
11 [320443b5] (02/80) Accurately ripped
12 [be04b53b] (02/81) Accurately ripped
13 [60c53256] (02/81) Accurately ripped
Offsetted by 2636:
01 [c07e3ef9] (33/80) Accurately ripped
02 [d39d9746] (34/79) Accurately ripped
03 [9a2c8803] (34/81) Accurately ripped
04 [61a0c1fe] (34/81) Accurately ripped
05 [9945a9b1] (34/81) Accurately ripped
06 [1e497bfd] (34/81) Accurately ripped
07 [8cf60912] (33/80) Accurately ripped
08 [ca3095e5] (34/81) Accurately ripped
09 [d84abcff] (34/81) Accurately ripped
10 [6c37330e] (34/81) Accurately ripped
11 [932f1930] (33/80) Accurately ripped
12 [31916e92] (34/81) Accurately ripped
13 [cfbfc92f] (34/81) Accurately ripped
Offsetted by 175:
01 [34f42fa7] (03/80) Accurately ripped
02 [d2e58204] (03/79) Accurately ripped
03 [5b38ea90] (03/81) Accurately ripped
04 [0682e4f6] (03/81) Accurately ripped
05 [e62ca8cb] (03/81) Accurately ripped
06 [d1f32d7c] (03/81) Accurately ripped
07 [6b19cb65] (03/80) Accurately ripped
08 [f35ecad4] (03/81) Accurately ripped
09 [074f0f3a] (00/81) No match (V2 was not tested)
10 [0128d7d6] (00/81) No match (V2 was not tested)
11 [5e3d5a69] (03/80) Accurately ripped
12 [83b46627] (03/81) Accurately ripped
13 [d3221788] (03/81) Accurately ripped

Track Peak [ CRC32 ] [W/O NULL] [ LOG ]
– 96,2 [4ED0597C] [FEC0E986] CRC32
01 96,2 [5BB87B9F] [E716621F]
02 86,6 [CAA7A576] [024D3000]
03 94,3 [1EDB4CDF] [1BEB6462]
04 74,0 [E27AA7F0] [56EE64D4]
05 89,4 [3858F7D9] [3036A572]
06 82,5 [9BD29323] [99293600]
07 86,5 [18B19657] [560929C5]
08 52,3 [CE54F58A] [616CC17D]
09 65,6 [675E9D87] [57125089]
10 66,9 [336AD5B8] [15DF897F]
11 63,4 [6723C4D9] [25ABA916]
12 65,8 [5722201A] [2DAB7B49]
13 89,2 [8202DDD2] [013BD4CC]

Thanks to spock82